<?xml version="1.0" standalone="no"?>
<!DOCTYPE svg PUBLIC "-//W3C//DTD SVG 1.1//EN" "http://www.w3.org/Graphics/SVG/1.1/DTD/svg11.dtd" >
<svg xmlns="http://www.w3.org/2000/svg">
<metadata>Generated by IcoMoon</metadata>
<defs>
<font id="sutochnoApp" horiz-adv-x="1024">
<font-face units-per-em="1024" ascent="960" descent="-64" />
<missing-glyph horiz-adv-x="1024" />
<glyph unicode="&#x20;" horiz-adv-x="512" d="" />
<glyph unicode="&#xe900;" glyph-name="shuttle-2" d="M260.48 683.52l-88.704-6.912c-24.704-1.92-46.72-14.848-60.352-35.52l-102.272-154.688c-10.368-15.68-12.032-35.264-4.48-52.48 7.68-17.152 23.232-29.12 41.792-32l81.28-12.544c18.88 100.8 64.384 201.344 132.736 294.080zM453.376 63.68l12.544-81.216c2.88-18.56 14.848-34.176 32-41.728 7.168-3.2 14.72-4.736 22.272-4.736 10.56 0 21.056 3.072 30.208 9.152l154.752 102.272c20.608 13.632 33.536 35.648 35.456 60.352l6.848 88.704c-92.672-68.288-193.28-113.792-294.080-132.8zM422.784 120c2.88 0 5.696 0.256 8.512 0.704 42.24 7.040 82.944 18.944 121.792 34.56l-333.824 333.824c-15.616-38.848-27.52-79.552-34.56-121.792-2.752-16.64 2.816-33.6 14.72-45.568l186.304-186.24c9.92-9.984 23.296-15.488 37.12-15.488zM942.336 505.984c81.728 157.952 84.736 324.864 80.448 403.2-1.408 26.752-22.848 48.128-49.664 49.6-12.736 0.704-27.84 1.216-44.8 1.216-87.616 0-226.112-13.248-358.336-81.664-105.088-54.4-242.88-174.080-324.16-331.328 0.96-0.704 1.92-1.536 2.752-2.432l360-360c0.896-0.832 1.728-1.792 2.432-2.752 157.312 81.28 276.992 219.072 331.328 324.16zM595.456 743.552c58.432 58.432 153.6 58.432 212.096 0 28.288-28.352 43.904-66.048 43.904-106.112s-15.616-77.696-43.904-106.048c-29.248-29.248-67.712-43.84-106.112-43.84s-76.8 14.592-106.048 43.84c-28.352 28.352-43.904 65.984-43.904 106.048s15.552 77.76 43.904 106.112zM637.824 573.824c35.072-35.072 92.16-35.072 127.296 0 16.96 16.96 26.368 39.616 26.368 63.616 0 24.064-9.408 46.656-26.368 63.68-17.536 17.536-40.64 26.24-63.68 26.24s-46.080-8.704-63.616-26.24c-17.024-17.024-26.368-39.68-26.368-63.68s9.344-46.656 26.368-63.616zM30.592 116.096c7.68 0 15.36 2.944 21.248 8.832l97.92 97.92c11.712 11.712 11.712 30.72 0 42.432s-30.72 11.712-42.432 0l-97.92-97.92c-11.712-11.712-11.712-30.72 0-42.432 5.824-5.888 13.504-8.832 21.184-8.832zM239.552 175.552c-11.712 11.712-30.72 11.712-42.432 0l-188.352-188.352c-11.712-11.712-11.712-30.72 0-42.432 5.888-5.824 13.568-8.768 21.248-8.768s15.36 2.944 21.184 8.768l188.352 188.352c11.712 11.712 11.712 30.72 0 42.432zM286.848 85.76l-97.92-97.92c-11.712-11.712-11.712-30.72 0-42.432 5.824-5.888 13.504-8.832 21.184-8.832s15.36 2.944 21.248 8.832l97.92 97.92c11.712 11.712 11.712 30.72 0 42.432s-30.72 11.712-42.432 0z" />
<glyph unicode="&#xe901;" glyph-name="man-transparent" horiz-adv-x="1074" d="M531.9 280.294c1.306 0 2.612 0 4.18 0 0.522 0 1.045 0 1.567 0 0.784 0 1.829 0 2.612 0 76.539 1.306 138.449 28.212 184.163 79.673 100.571 113.371 83.853 307.722 82.024 326.269-6.531 139.233-72.359 205.845-126.694 236.931-40.49 23.249-87.771 35.788-140.539 36.833h-1.829c-0.261 0-0.784 0-1.045 0h-1.567c-28.996 0-85.943-4.702-140.539-35.788-54.857-31.086-121.731-97.698-128.261-237.976-1.829-18.547-18.546-212.898 82.024-326.269 45.453-51.461 107.363-78.367 183.902-79.673zM335.72 679.706c0 0.784 0.261 1.567 0.261 2.090 8.62 187.298 141.584 207.412 198.531 207.412h1.045c0.522 0 1.306 0 2.090 0 70.531-1.567 190.433-30.302 198.531-207.412 0-0.784 0-1.567 0.261-2.090 0.261-1.829 18.547-179.461-64.522-272.98-32.914-37.094-76.8-55.38-134.531-55.902-0.522 0-0.784 0-1.306 0s-0.784 0-1.306 0c-57.469 0.522-101.616 18.808-134.269 55.902-82.808 92.996-65.045 271.412-64.784 272.98zM1073.11 72.882c0 0.261 0 0.522 0 0.784 0 2.090-0.261 4.18-0.261 6.531-1.567 51.722-12.278 157.518-118.335 211.331-0.784 0.261-1.829 0.522-2.612 0.784-109.453 53.812-215.771 97.959-216.816 98.743-15.935 11.233-37.878 7.314-49.11-8.62s-7.314-37.878 8.62-49.11c4.441-3.135 113.894-51.2 238.498-108.931 55.641-25.78 67.657-86.727 69.486-146.286 0-2.351 0-4.441 0.261-6.531 0.261-23.51-1.306-59.82-5.486-80.718-77.845 0-208.196 0.261-460.539 0.261-251.298 0-363.102 0-460.8 0-4.18 20.898-6.008 57.208-5.486 80.718 0 2.090 0.261 4.18 0.261 6.531 1.829 59.559-0.261 115.474 69.486 146.286 130.090 57.469 234.057 106.057 238.498 108.931 15.935 11.233 19.853 33.176 8.62 49.11s-33.176 19.853-49.11 8.62c-1.045-0.784-103.184-42.58-216.816-98.743-1.045-0.261-1.829-0.522-2.612-0.784-118.335-39.445-116.767-159.869-118.335-211.331 0-2.351 0-4.441-0.261-6.531 0-0.261 0-0.522 0-0.784-0.261-13.584-0.522-83.331 13.322-118.335 2.612-6.792 7.314-12.539 13.584-16.457 7.837-5.224 195.657 0 509.91 0s502.073-4.963 509.91 0c6.008 3.918 10.971 9.665 13.584 16.457 13.061 34.743 12.8 104.49 12.539 118.073z" />
<glyph unicode="&#xe902;" glyph-name="check" d="M468.567 288.732l-212.95 188.63c-10.811 8.674-49.458-40.158-58.107-50.97-8.674-10.861-6.914-26.676 3.922-35.35l251.421-201.137c4.626-3.696 10.183-5.506 15.714-5.506 6.939 0 13.853 2.866 18.806 8.448l402.273 452.557c9.227 10.359 8.297 26.273-2.087 35.475-10.409 9.252-52.136 30.746-61.388 20.338l-357.605-412.486z" />
<glyph unicode="&#xe903;" glyph-name="important" d="M479.589 415.67l-9.429 141.134c-1.768 27.5-2.652 47.241-2.652 59.223 0 16.304 4.272 29.022 12.817 38.156s19.79 13.701 33.737 13.701c16.893 0 28.187-5.844 33.884-17.531s8.545-28.531 8.545-50.531c0-12.964-0.687-26.125-2.063-39.482l-12.67-145.259c-1.375-17.286-4.321-30.545-8.839-39.777s-11.982-13.848-22.393-13.848c-10.607 0-17.973 4.469-22.098 13.406s-7.071 22.54-8.839 40.808zM512.295 221.795c-11.982 0-22.442 3.879-31.379 11.638s-13.406 18.612-13.406 32.558c0 12.179 4.272 22.54 12.817 31.085s19.004 12.817 31.379 12.817c12.375 0 22.933-4.272 31.674-12.817s13.112-18.906 13.112-31.085c0-13.75-4.42-24.554-13.259-32.411s-19.152-11.786-30.938-11.786zM512 82.286c-201.978 0-365.714 163.736-365.714 365.714s163.736 365.714 365.714 365.714c201.978 0 365.714-163.736 365.714-365.714s-163.736-365.714-365.714-365.714zM512 118.857c181.781 0 329.143 147.362 329.143 329.143s-147.362 329.143-329.143 329.143c-181.781 0-329.143-147.362-329.143-329.143s147.362-329.143 329.143-329.143z" />
<glyph unicode="&#xe904;" glyph-name="info" d="M512 82.286c-201.978 0-365.714 163.736-365.714 365.714s163.736 365.714 365.714 365.714c201.978 0 365.714-163.736 365.714-365.714s-163.736-365.714-365.714-365.714zM512 118.857c181.781 0 329.143 147.362 329.143 329.143s-147.362 329.143-329.143 329.143c-181.781 0-329.143-147.362-329.143-329.143s147.362-329.143 329.143-329.143zM521.49 328.583l27.358 11.195c13.679 4.976 28.726 0 34.198-12.439s0-26.122-13.679-31.098l-72.499-28.61c-2.736-1.244-6.84-2.488-10.943-2.488-16.415 0-28.726 14.927-25.99 28.61l34.198 157.979-16.415-7.464c-12.311-6.22-28.726-2.488-35.566 8.707s-2.736 26.122 9.575 32.342l67.027 33.586c21.886 11.195 42.405-7.464 38.301-24.879l-35.566-165.442zM531.066 563.685c-20.519 0-36.933 14.927-36.933 33.586s16.415 33.586 36.933 33.586c20.519 0 36.933-14.927 36.933-33.586s-16.415-33.586-36.933-33.586z" />
<glyph unicode="&#xe905;" glyph-name="lamp" d="M511.108 704c-117.949 0-203.153-84.122-216.664-174.482-8.425-60.24 11.922-118.958 54.206-163.377 37.197-38.030 57.544-88.838 57.544-141.167l-0.159-82.449c0-33.314 28.772-60.24 64.379-60.24h82.978c35.607 0 64.379 26.925 64.379 60.24l0.159 82.449c0 53.85 18.598 103.137 54.206 137.973 38.946 38.030 59.293 87.165 59.293 137.973-0.159 112.721-100.146 203.080-220.32 203.080v0zM585.502 142.525c0-15.82-13.512-28.599-30.521-28.599h-82.978c-17.009 0-30.521 12.626-30.521 28.599v36.509h143.86v-36.509h0.159zM648.451 385.157c-42.284-41.225-64.379-98.269-64.379-160.182v-14.299h-143.86v14.299c0 58.718-25.434 117.284-67.718 161.704-37.197 38.030-52.457 87.165-45.781 137.973 11.922 76.060 85.839 147.556 184.554 147.556 103.325 0 186.303-77.733 186.303-171.287 0-42.746-17.009-83.97-49.119-115.763v0zM494.431 850.286h36.571v-82.099h-36.571v82.099zM723.98 691.999l24.466-24.466 59.932 57.634-24.63 24.466zM828.574 480.511h85.711v-36.571h-85.711v36.571zM109.714 480.511h85.711v-36.571h-85.711v36.571zM239.595 749.796l-24.63-24.466 59.932-57.634 24.466 24.466z" />
<glyph unicode="&#xe906;" glyph-name="tabs" d="M128 640h64v-64h-64v-448h640v64h64v-128h-768v576h64zM256 832h768v-576h-768v576zM320 704v-384h640v384h-640z" />
<glyph unicode="&#xe907;" glyph-name="update" d="M237.084 718.426c135.791 119.589 339.008 121.417 476.677 12.251l-109.121-4.023c-14.086-0.549-24.98-11.886-24.416-25.6 0.563-13.349 11.832-23.771 25.355-23.771 0.376 0 0.563 0 0.939 0l167.532 6.034c13.711 0.549 24.416 11.337 24.416 24.686v1.829c0 0.366 0 0.549 0 0.914v0.183l-6.198 161.28c-0.563 13.714-12.396 24.32-26.294 23.771-14.086-0.549-24.98-11.886-24.416-25.6l3.944-101.12c-68.177 54.309-152.131 85.76-241.907 90.149-111.187 5.486-218.054-31.634-300.506-104.411-113.441-100.023-161.522-252.16-125.461-396.983 2.817-11.337 13.147-18.834 24.604-18.834 2.066 0 3.944 0.183 6.010 0.731 13.523 3.291 21.974 16.64 18.594 29.806-31.553 127.269 10.518 260.937 110.248 348.709zM895.003 538.494c-3.381 13.166-17.091 21.394-30.614 18.103s-21.974-16.64-18.594-29.806c31.741-127.269-10.518-260.937-110.248-348.709-70.055-61.623-157.953-91.977-245.476-91.977-83.578 0-166.968 27.611-234.207 82.103l110.436 9.691c13.898 1.28 24.228 13.166 22.914 26.88s-13.523 23.589-27.609 22.309l-166.968-14.629c-13.898-1.28-24.228-13.166-22.914-26.88l15.025-162.56c1.127-12.8 12.208-22.491 25.167-22.491 0.751 0 1.503 0 2.254 0.183 13.898 1.28 24.228 13.166 22.914 26.88l-9.015 98.926c68.177-53.76 151.755-85.029 240.968-89.417 7.137-0.366 14.274-0.549 21.223-0.549 103.487 0 201.902 36.937 279.282 104.96 113.441 100.023 161.522 251.977 125.461 396.983z" />
<glyph unicode="&#xe908;" glyph-name="fire" d="M919.339 371.405c-12.121 133.628-85.595 217.367-150.414 291.263-60.020 68.411-111.858 127.487-111.858 214.634 0 7-4.629 13.398-11.97 16.606-7.364 3.227-16.211 2.698-22.905-1.421-97.348-58.985-178.572-158.401-206.946-253.258-19.697-66.040-22.303-140.282-22.669-189.315-89.9 16.259-110.265 130.128-110.48 131.369-1.013 5.906-5.274 11.046-11.474 13.853-6.264 2.77-13.628 2.971-19.978 0.31-4.714-1.932-115.713-49.689-122.171-240.371-0.453-6.344-0.473-12.707-0.473-19.068 0-185.25 178.012-335.977 396.8-335.977 0.302-0.017 0.624-0.054 0.882 0 0.087 0 0.172 0 0.279 0 218.25 0.53 395.639 151.055 395.639 335.977 0 9.315-2.261 35.399-2.261 35.399zM524.8 37.359c-72.937 0-132.267 53.517-132.267 119.301 0 2.242-0.021 4.503 0.172 7.273 0.882 27.743 7.105 46.681 13.929 59.278 12.789-23.259 35.65-44.641 72.786-44.641 12.185 0 22.045 8.349 22.045 18.665 0 26.575 0.647 57.235 8.461 84.906 6.954 24.535 23.572 50.638 44.628 71.563 9.364-27.16 27.621-49.142 45.446-70.597 25.511-30.695 51.882-62.431 56.511-116.55 0.279-3.208 0.56-6.435 0.56-9.898-0.004-65.782-59.334-119.301-132.271-119.301z" />
<glyph unicode="&#xe909;" glyph-name="heart" d="M773.9 466.007v0c54.757 56.313 54.757 147.933 0 204.275-26.521 27.282-61.778 42.279-99.289 42.279-37.52 0-72.787-14.997-99.301-42.279l-41.111-42.313c-11.779-12.108-32.608-12.108-44.399 0l-41.12 42.313c-26.511 27.282-61.778 42.279-99.279 42.279s-72.778-14.997-99.301-42.279c-54.757-56.342-54.757-147.963 0-204.275l261.895-269.393 261.905 269.393zM674.611 777.143c54.277 0 105.292-21.725 143.671-61.199 79.241-81.51 79.241-214.115 0.007-295.597l-283.909-292.026c-6.119-6.301-14.168-9.463-22.197-9.463-2.044 0-4.080 0.194-6.107 0.611-6.032 1.124-11.808 4.063-16.455 8.852l-283.911 292.026c-79.234 81.482-79.234 214.088 0 295.597 38.377 39.474 89.413 61.199 143.69 61.199 54.267 0 105.311-21.725 143.688-61.199l18.906-19.457 18.916 19.457c38.396 39.474 89.413 61.199 143.7 61.199z" />
<glyph unicode="&#xe90a;" glyph-name="partner" horiz-adv-x="2048" d="M359.731 496.64c0 0 14.95 61.696-36.557 114.893-51.558 53.35-116.070 53.35-116.070 53.35s-15.718-72.55 34.56-124.467c50.33-51.866 118.067-43.776 118.067-43.776zM472.883 508.314c0 0 59.853 32.922 70.502 104.294 10.65 71.475-44.39 121.344-44.39 121.344s-52.378-37.581-63.334-110.899c-10.906-73.216 37.222-114.739 37.222-114.739zM512.154 437.76c-1.229-74.035 51.866-108.902 51.866-108.902s55.040 40.448 56.32 112.64c1.178 72.192-59.853 114.483-59.853 114.483s-47.104-44.032-48.333-118.221zM674.662 451.533c0 0-42.701-48.333-37.018-122.317 5.734-73.882 61.85-103.475 61.85-103.475s51.046 45.363 45.517 117.402c-5.632 71.987-70.349 108.39-70.349 108.39zM869.632 136.704c0 0 35.84 58.214 9.779 125.594-26.112 67.277-98.611 83.507-98.611 83.507s-26.982-58.624-0.205-127.744c26.778-69.12 89.037-81.357 89.037-81.357zM384 654.694c0 0 46.746 43.008 33.382 115.917-13.261 72.858-66.918 108.698-66.918 108.698s-53.299-51.661-40.294-122.778c12.954-71.014 73.83-101.837 73.83-101.837zM422.4 357.018c0 0-3.891 63.386-68.813 99.123-64.973 35.686-126.618 16.691-126.618 16.691s6.4-73.933 69.734-108.8c63.232-34.816 125.696-7.014 125.696-7.014zM532.224 234.342c0 0-17.869 60.877-89.088 81.306-71.322 20.275-127.181-11.827-127.181-11.827s22.682-70.707 92.109-90.573c69.478-19.814 124.16 21.094 124.16 21.094zM654.694 147.149c0 0-35.482 52.582-109.568 50.483-74.138-2.099-117.606-49.766-117.606-49.766s43.008-60.57 115.2-58.47c72.192 2.15 111.974 57.754 111.974 57.754zM707.072 111.514c-73.318-11.008-110.848-63.386-110.848-63.386s49.971-54.989 121.395-44.288c71.475 10.803 104.243 70.707 104.243 70.707s-41.626 48.026-114.79 36.966zM408.32 618.65l-35.277 1.178c-0.154-3.789-7.066-387.021 571.802-556.8l9.933 33.894c-551.219 161.69-546.97 507.034-546.458 521.728zM1677.21 496.333c0 0 67.84-8.090 118.067 43.776 50.227 51.917 34.56 124.467 34.56 124.467s-64.512 0-116.070-53.299c-51.507-53.146-36.557-114.944-36.557-114.944zM1493.555 612.352c10.65-71.475 70.502-104.294 70.502-104.294s48.077 41.472 37.222 114.739c-10.854 73.267-63.283 110.899-63.283 110.899s-55.091-49.869-44.442-121.344zM1416.653 441.242c1.178-72.141 56.32-112.589 56.32-112.589s53.094 34.816 51.866 108.902c-1.178 74.086-48.23 118.221-48.23 118.221s-61.133-42.342-59.955-114.534zM1291.878 342.835c-5.478-72.038 45.568-117.402 45.568-117.402s56.166 29.594 61.85 103.475c5.632 73.882-37.069 122.317-37.069 122.317s-64.666-36.403-70.349-108.39zM1157.53 262.042c-26.010-67.43 9.83-125.594 9.83-125.594s62.31 12.186 89.037 81.357c26.675 69.171-0.205 127.744-0.205 127.744s-72.499-16.23-98.662-83.507zM1726.874 756.275c13.005 71.117-40.294 122.778-40.294 122.778s-53.658-35.84-66.97-108.749c-13.312-72.858 33.382-115.917 33.382-115.917s60.928 30.822 73.882 101.888zM1683.456 455.834c-64.973-35.686-68.813-99.123-68.813-99.123s62.413-27.802 125.747 7.014c63.232 34.816 69.683 108.8 69.683 108.8s-61.696 18.995-126.618-16.691zM1593.907 315.341c-71.27-20.326-89.088-81.306-89.088-81.306s54.682-40.909 124.16-21.094c69.427 19.917 92.109 90.624 92.109 90.624s-55.91 32.154-127.181 11.776zM1491.866 197.427c-74.035 2.099-109.568-50.586-109.568-50.586s39.68-55.603 111.974-57.702c72.192-2.099 115.2 58.522 115.2 58.522s-43.469 47.565-117.606 49.766zM1329.971 111.258c-73.267 11.008-114.79-37.069-114.79-37.069s32.819-59.904 104.243-70.707c71.475-10.598 121.395 44.237 121.395 44.237s-37.53 52.531-110.848 63.539zM1664.051 619.571l-35.277-1.229c0.461-14.592 4.659-359.936-546.458-521.677l9.933-33.946c578.867 169.83 571.904 553.011 571.802 556.851z" />
<glyph unicode="&#xe90b;" glyph-name="location" d="M509.134 736.582c-75.993 0-137.846-58.48-137.846-130.327s61.854-130.327 137.846-130.327c75.993 0 137.846 58.48 137.846 130.327s-61.854 130.327-137.846 130.327zM509.134 513.164c-54.292 0-98.462 41.761-98.462 93.091s44.17 93.091 98.462 93.091c54.292 0 98.462-41.761 98.462-93.091s-44.17-93.091-98.462-93.091zM772.676 855.422c-71.326 67.435-166.164 104.578-267.028 104.578-100.884 0-195.702-37.143-267.028-104.578-131.998-124.779-148.401-359.554-35.525-501.797l302.553-413.1 302.1 412.523c113.329 142.82 96.926 377.595-35.072 502.374zM775.807 374.812l-270.159-368.863-270.592 369.441c-102.38 129.061-87.71 341.085 31.429 453.706 63.882 60.397 148.815 93.668 239.163 93.668s175.281-33.271 239.183-93.668c119.138-112.621 133.809-324.645 30.976-454.284z" />
<glyph unicode="&#xe90c;" glyph-name="star" d="M512 226.358l-237.325-124.769 45.325 264.265-192 187.154 265.337 38.556 118.663 240.437 118.663-240.437 265.337-38.556-192-187.154 45.325-264.265z" />
<glyph unicode="&#xe90d;" glyph-name="rocket" d="M0 362.616l170.767 170.767 152.665 30.171c194.301 264.297 566.006 396.445 700.568 396.445 0-134.562-132.148-506.268-396.445-700.568l-30.171-152.665-170.767-170.767-42.843 213.006c-85.082 0-85.082 0-127.925 42.843s-42.843 42.843-42.843 127.925l-213.006 42.843zM170.767 191.849l85.082-85.082-160.509-161.113h-85.685v85.685l161.113 160.509zM85.082 276.931l74.824-10.258-148.441-147.837v85.685l73.617 72.41zM330.673 95.906l10.258-74.824-72.41-73.617h-85.685l147.837 148.441zM726.187 752.7c-49.989 0-90.513-40.524-90.513-90.513s40.524-90.513 90.513-90.513c49.989 0 90.513 40.524 90.513 90.513s-40.524 90.513-90.513 90.513v0z" />
<glyph unicode="&#xe90e;" glyph-name="wifi" d="M512-64c-282.77 0-512 229.23-512 512s229.23 512 512 512c282.77 0 512-229.23 512-512s-229.23-512-512-512zM512-27.429c262.572 0 475.429 212.857 475.429 475.429s-212.857 475.429-475.429 475.429c-262.572 0-475.429-212.857-475.429-475.429s212.857-475.429 475.429-475.429zM567.194 349.454c-26.814 27.582-70.444 27.582-97.258 0-26.814-27.58-26.814-72.457 0-100.037 13.407-13.79 31.017-20.685 48.629-20.685s35.223 6.895 48.629 20.685c26.815 27.58 26.815 72.457 0.001 100.037zM677.487 455.56c-87.63 90.132-230.214 90.132-317.843 0-2.976-3.061-4.649-7.214-4.649-11.543s1.673-8.482 4.649-11.543l48.431-49.815c2.976-3.061 7.013-4.782 11.223-4.782s8.246 1.721 11.224 4.782c23.475 24.146 54.743 37.443 88.043 37.443s64.569-13.298 88.044-37.443c2.976-3.061 7.013-4.782 11.224-4.782 4.209 0 8.246 1.721 11.223 4.782l48.431 49.815c2.976 3.061 4.649 7.214 4.649 11.543 0.002 4.331-1.671 8.482-4.647 11.543zM776.48 557.382c-68.89 70.861-160.487 109.885-257.916 109.885s-189.024-39.025-257.915-109.885c-6.199-6.376-6.199-16.712 0-23.089l48.431-49.815c6.198-6.376 16.248-6.376 22.447 0 103.133 106.079 270.943 106.079 374.075 0 3.099-3.188 7.162-4.782 11.223-4.782 4.062 0 8.124 1.593 11.223 4.782l48.431 49.815c6.201 6.376 6.201 16.712 0.002 23.089z" />
<glyph unicode="&#xe90f;" glyph-name="parking" d="M512-64c-282.77 0-512 229.23-512 512s229.23 512 512 512c282.77 0 512-229.23 512-512s-229.23-512-512-512zM512-27.429c262.572 0 475.429 212.857 475.429 475.429s-212.857 475.429-475.429 475.429c-262.572 0-475.429-212.857-475.429-475.429s212.857-475.429 475.429-475.429zM507.192 537.266c-12.978 0-21.537-1.247-26.468-2.504v-83.256c5.632-1.258 12.243-1.67 21.448-1.67 33.892 0 54.806 17.163 54.806 46.013 0.011 25.945-17.998 41.416-49.786 41.416zM705.995 704h-387.979c-34.261 0-62.016-27.154-62.016-60.649v-390.713c0-33.494 27.767-60.638 62.016-60.638h387.979c34.261 0 62.005 27.154 62.005 60.638v390.713c0.011 33.506-27.744 60.649-62.005 60.649zM729.797 262.365c0-18.24-15.108-32.993-33.737-32.993h-368.815c-18.64 0-33.748 14.775-33.748 32.993v370.557c0 18.218 15.108 32.993 33.748 32.993h368.804c18.64 0 33.737-14.775 33.737-32.993l0.011-370.557zM685.499 630.857h-346.987c-5.167 0-9.369-4.075-9.369-9.121v-347.471c0-5.015 4.191-9.121 9.369-9.121h346.987c5.156 0 9.358 4.096 9.358 9.121v347.482c0 5.036-4.191 9.111-9.358 9.111zM591.883 431.721c-20.936-19.235-52.066-27.876-88.341-27.876-8.051 0-14.943 0.397-21.054 1.181v-94.892h-60.384v261.419c18.995 3.145 45.409 5.506 82.885 5.506 37.884 0 64.811-7.074 82.96-21.221 17.312-13.343 28.975-35.347 28.975-61.259 0-25.943-8.897-47.948-25.041-62.857z" />
<glyph unicode="&#xe910;" glyph-name="condition" d="M512-64c-282.77 0-512 229.23-512 512s229.23 512 512 512c282.77 0 512-229.23 512-512s-229.23-512-512-512zM512-27.429c262.572 0 475.429 212.857 475.429 475.429s-212.857 475.429-475.429 475.429c-262.572 0-475.429-212.857-475.429-475.429s212.857-475.429 475.429-475.429zM651.304 398.005c23.935 0 43.407-19.847 43.407-44.239v-45.568h-365.422v45.568c0 24.392 19.471 44.239 43.407 44.239h278.609zM758.207 667.429c45.731 0 82.935-37.918 82.936-84.525v-190.182c0-46.608-37.205-84.525-82.935-84.525h-24.621v45.568c0 46.24-36.912 83.861-82.283 83.861h-278.607c-45.371 0-82.283-37.621-82.283-83.861v-45.568h-24.621c-45.731 0-82.935 37.918-82.935 84.525v190.182c0 46.607 37.203 84.525 82.935 84.525h492.415zM641.577 552.528c10.734 0 19.437 8.869 19.437 19.81s-8.703 19.81-19.437 19.81h-24.79c-10.734 0-19.437-8.87-19.437-19.81s8.703-19.81 19.437-19.81h24.79zM734.877 552.528c10.736 0 19.439 8.869 19.437 19.81 0 10.94-8.703 19.81-19.437 19.81h-24.79c-10.734 0-19.437-8.87-19.437-19.81s8.703-19.81 19.437-19.81h24.79zM511.999 288.188c10.734 0 19.437-8.87 19.437-19.81v-93.138c0-10.942-8.703-19.81-19.437-19.81s-19.437 8.87-19.437 19.81v93.138c0 10.94 8.703 19.81 19.437 19.81zM624.734 195.050c10.734 0 19.437-8.87 19.439-19.811 0-10.94-8.703-19.81-19.437-19.81-39.482 0-71.6 32.737-71.6 72.973v39.977c0 10.94 8.703 19.81 19.437 19.81s19.437-8.87 19.437-19.81v-39.977c0-18.391 14.679-33.351 32.724-33.351zM451.426 288.188c10.736 0 19.439-8.87 19.439-19.809v-39.977c0-40.239-32.12-72.973-71.6-72.973-10.734 0-19.437 8.87-19.437 19.81s8.703 19.81 19.437 19.81c18.045 0 32.724 14.962 32.724 33.351v39.977c0 10.94 8.703 19.81 19.437 19.81z" />
<glyph unicode="&#xe911;" glyph-name="documents" d="M512-64c-282.77 0-512 229.23-512 512s229.23 512 512 512c282.77 0 512-229.23 512-512s-229.23-512-512-512zM512-27.429c262.572 0 475.429 212.857 475.429 475.429s-212.857 475.429-475.429 475.429c-262.572 0-475.429-212.857-475.429-475.429s212.857-475.429 475.429-475.429zM671.62 667.429h-194.228v-113.247c0-7.496-7.071-13.572-15.793-13.572h-131.778v-256.078c0-10.708 10.102-19.389 22.562-19.389h319.237c12.46 0 22.562 8.681 22.562 19.389v363.508c0 10.708-10.102 19.389-22.562 19.389zM582.693 345.472h-128.591c-8.722 0-15.793 6.077-15.793 13.572s7.071 13.572 15.793 13.572h128.591c8.722 0 15.793-6.077 15.793-13.572s-7.071-13.572-15.793-13.572zM582.693 409.32h-128.591c-8.722 0-15.793 6.077-15.793 13.572s7.071 13.572 15.793 13.572h128.591c8.722 0 15.793-6.077 15.793-13.572s-7.071-13.572-15.793-13.572zM582.693 473.166h-128.591c-8.722 0-15.793 6.077-15.793 13.572s7.071 13.572 15.793 13.572h128.591c8.722 0 15.793-6.077 15.793-13.572s-7.071-13.572-15.793-13.572zM445.613 667.429c-5.983 0-11.721-2.042-15.952-5.68l-93.232-80.119c-4.231-3.636-6.609-8.567-6.609-13.709v-0.166h115.986v99.673h-0.192z" />
<glyph unicode="&#xe912;" glyph-name="no-smoking" d="M512-64c-282.77 0-512 229.23-512 512s229.23 512 512 512c282.77 0 512-229.23 512-512s-229.23-512-512-512zM512-27.429c262.572 0 475.429 212.857 475.429 475.429s-212.857 475.429-475.429 475.429c-262.572 0-475.429-212.857-475.429-475.429s212.857-475.429 475.429-475.429zM279.333 465.532c-33.28 0-59.904-27.219-59.904-60.511v-55.427c0-33.28 26.624-60.023 59.904-60.023h225.506l-179.105 175.961h-46.401zM711.175 465.532h-208.979l47.878-47.568h160.994c7.335 0 13.252-5.68 13.252-13.002v-55.701c0-7.311-5.918-13.729-13.252-13.729h-77.038l47.259-45.961h29.887c33.28 0 59.904 26.743 59.904 60.023v55.427c0 33.292-26.624 60.511-59.904 60.511zM671.429 535.557c-7.132-10.847-4.096-25.421 6.763-32.53 3.965-2.596 8.43-3.834 12.86-3.834 7.656 0 15.134 3.727 19.647 10.609 48.557 74.073 29.791 107.163 0.25 142.729-14.872 17.896-27.719 33.328-27.719 64.191 0 12.979-10.514 23.492-23.504 23.492-12.979 0-23.516-10.514-23.516-23.492 0-47.842 22.302-74.657 38.579-94.232 20.599-24.755 29.994-36.066-3.358-86.933zM640.733 251.266c3.739 3.739 5.834 8.847 5.799 14.145-0.036 5.287-2.203 10.359-6.001 14.074l-264.383 257.679c-7.775 7.573-20.182 7.501-27.862-0.179-2.846-2.846-5.703-5.703-8.561-8.561-3.751-3.739-5.834-8.847-5.811-14.145 0.036-5.299 2.203-10.371 6.001-14.074l264.394-257.667c7.763-7.585 20.182-7.513 27.862 0.179 2.858 2.846 5.703 5.703 8.561 8.549z" />
<glyph unicode="&#xe913;" glyph-name="washmachine" d="M512-64c-282.77 0-512 229.23-512 512s229.23 512 512 512c282.77 0 512-229.23 512-512s-229.23-512-512-512zM512-27.429c262.572 0 475.429 212.857 475.429 475.429s-212.857 475.429-475.429 475.429c-262.572 0-475.429-212.857-475.429-475.429s212.857-475.429 475.429-475.429zM509.77 494.265c-45.937 0-84.93-29.692-98.080-70.531 52.628 24.766 85.778-1.208 103.055-14.751 1.566-1.228 3.047-2.391 4.454-3.445 1.629-1.221 3.264-2.502 4.995-3.86 18.617-14.595 41.593-32.601 88.117-0.721-3.939 52.098-48.424 93.307-102.54 93.307zM570.102 350.925c-28.884-0.001-48.75 15.577-60.844 25.058-1.566 1.227-3.047 2.391-4.454 3.444-1.629 1.221-3.264 2.502-4.996 3.86-18.617 14.595-41.596 32.598-88.118 0.721 3.938-52.099 48.423-93.309 102.542-93.309 45.934 0 84.925 29.688 98.078 70.523-15.789-7.431-29.828-10.297-42.209-10.297zM715.848 557.714h-423.276v-323.171c0-23.458 19.813-42.543 44.167-42.543h350.503c24.353 0 44.167 19.085 44.167 42.543v323.171h-15.56zM511.993 260.655c-73.954 0-134.122 57.955-134.122 129.19s60.167 129.191 134.122 129.191c73.955 0 134.121-57.955 134.121-129.191s-60.167-129.19-134.121-129.19zM687.261 704h-350.52c-24.355 0-44.169-19.686-44.169-43.883v-65.831h438.857v65.831c0.001 24.197-19.813 43.883-44.168 43.883zM437.092 632.653h-75.864c-8.593 0-15.56 6.921-15.56 15.459s6.965 15.459 15.56 15.459h75.864c8.593 0 15.56-6.921 15.56-15.459s-6.966-15.459-15.56-15.459zM593.731 632.653h-22.959c-8.593 0-15.56 6.921-15.56 15.459s6.965 15.459 15.56 15.459h22.959c8.593 0 15.56-6.921 15.56-15.459s-6.966-15.459-15.56-15.459zM662.772 632.653h-22.959c-8.593 0-15.56 6.921-15.56 15.459s6.966 15.459 15.56 15.459h22.959c8.593 0 15.56-6.921 15.56-15.459s-6.966-15.459-15.56-15.459z" />
<glyph unicode="&#xe914;" glyph-name="refrigerator" d="M512-64c-282.77 0-512 229.23-512 512s229.23 512 512 512c282.77 0 512-229.23 512-512s-229.23-512-512-512zM512-27.429c262.572 0 475.429 212.857 475.429 475.429s-212.857 475.429-475.429 475.429c-262.572 0-475.429-212.857-475.429-475.429s212.857-475.429 475.429-475.429zM414.328 608.826c0-5.286-5.548-9.565-12.406-9.565-6.85 0-12.398 4.279-12.398 9.565v42.916c0 5.286 5.548 9.566 12.398 9.566 6.859 0 12.406-4.279 12.406-9.566v-42.916zM657.509 704h-292.598c-19.746 0-35.768-14.658-35.768-32.741v-113.545h364.119v113.545c0.008 18.083-16.005 32.741-35.752 32.741zM389.78 441.741c0 8.55 5.573 15.488 12.452 15.488 6.889 0 12.461-6.937 12.461-15.488v-69.505c0-8.558-5.573-15.479-12.461-15.479-6.88 0-12.452 6.921-12.452 15.479v69.505zM329.143 226.481c0-19.051 16.092-34.481 35.925-34.481h293.888c19.817 0 35.901 15.43 35.901 34.481v294.662h-365.714v-294.662z" />
<glyph unicode="&#xe915;" glyph-name="microwave" d="M512-64c-282.77 0-512 229.23-512 512s229.23 512 512 512c282.77 0 512-229.23 512-512s-229.23-512-512-512zM512-27.429c262.572 0 475.429 212.857 475.429 475.429s-212.857 475.429-475.429 475.429c-262.572 0-475.429-212.857-475.429-475.429s212.857-475.429 475.429-475.429zM292.571 557.714h256v-256h-256zM741.027 667.429h-82.741v-109.714h182.857v27.028c0 45.59-44.915 82.686-100.116 82.686zM182.857 577.939v-296.449c0-49.347 37.717-89.49 84.071-89.49h354.786v475.429h-354.786c-46.354 0-84.071-40.148-84.071-89.49zM284.211 594.286h272.721c15.557 0 28.211-13.258 28.211-29.557v-270.029c0-16.299-12.654-29.557-28.211-29.557h-272.721c-15.552 0-28.211 13.258-28.211 29.557v270.029c0 16.299 12.659 29.557 28.211 29.557zM658.286 192h82.741c55.201 0 100.116 41.623 100.116 92.79v236.353h-182.857v-329.143zM729.952 463.888c0.074 0.668 0.177 1.33 0.326 1.982 0.143 0.636 0.32 1.288 0.526 1.924 0.206 0.641 0.452 1.266 0.732 1.876 0.263 0.609 0.572 1.219 0.903 1.802 0.337 0.583 0.72 1.166 1.115 1.712 0.394 0.556 0.818 1.097 1.275 1.611 0.452 0.519 0.938 1.017 1.446 1.478 0.515 0.477 1.041 0.927 1.612 1.346 0.537 0.419 1.126 0.827 1.727 1.192s1.212 0.705 1.841 1.017c0.629 0.313 1.292 0.599 1.95 0.853 0.657 0.249 1.344 0.477 2.018 0.668 0.686 0.191 1.389 0.366 2.093 0.488 0.703 0.138 1.424 0.233 2.121 0.297 1.435 0.138 2.887 0.138 4.322 0 0.715-0.064 1.429-0.159 2.133-0.297 0.703-0.122 1.406-0.297 2.081-0.488 0.686-0.191 1.361-0.419 2.018-0.668 0.657-0.254 1.321-0.54 1.95-0.853s1.258-0.652 1.841-1.017c0.6-0.366 1.189-0.774 1.744-1.192s1.098-0.869 1.595-1.346c0.509-0.461 0.995-0.959 1.446-1.478 0.457-0.514 0.892-1.054 1.292-1.611 0.394-0.546 0.76-1.129 1.098-1.712 0.332-0.583 0.64-1.192 0.92-1.802s0.509-1.235 0.715-1.876c0.223-0.636 0.394-1.288 0.526-1.924 0.149-0.652 0.252-1.314 0.326-1.982 0.074-0.662 0.114-1.341 0.114-1.992 0-0.668-0.040-1.346-0.114-2.008s-0.177-1.314-0.326-1.982c-0.131-0.636-0.303-1.288-0.526-1.924-0.206-0.641-0.435-1.261-0.715-1.876-0.28-0.609-0.589-1.219-0.92-1.802-0.337-0.583-0.703-1.166-1.098-1.712-0.4-0.556-0.835-1.097-1.292-1.611-0.452-0.519-0.938-1.017-1.446-1.478-0.497-0.477-1.041-0.922-1.595-1.346-0.555-0.419-1.143-0.827-1.744-1.192-0.583-0.366-1.212-0.705-1.841-1.017s-1.292-0.599-1.95-0.853c-0.657-0.244-1.332-0.477-2.018-0.668-0.675-0.191-1.378-0.366-2.081-0.488-0.703-0.132-1.418-0.228-2.133-0.297-0.72-0.069-1.435-0.111-2.155-0.111-0.715 0-1.446 0.042-2.167 0.111-0.698 0.069-1.418 0.164-2.121 0.297-0.703 0.122-1.406 0.297-2.093 0.488-0.675 0.191-1.361 0.424-2.018 0.668-0.657 0.254-1.321 0.54-1.95 0.853s-1.241 0.652-1.841 1.017c-0.6 0.366-1.189 0.774-1.727 1.192-0.572 0.424-1.098 0.869-1.612 1.346-0.509 0.461-0.995 0.959-1.446 1.478-0.457 0.514-0.88 1.054-1.275 1.611-0.394 0.546-0.778 1.129-1.115 1.712-0.332 0.583-0.64 1.192-0.903 1.802-0.28 0.615-0.526 1.235-0.732 1.876-0.206 0.636-0.383 1.288-0.526 1.924-0.149 0.668-0.252 1.319-0.326 1.982s-0.103 1.341-0.103 2.008c0.006 0.652 0.034 1.33 0.103 1.992zM729.952 396.062c0.074 0.668 0.177 1.33 0.326 1.982 0.143 0.636 0.32 1.288 0.526 1.924 0.206 0.641 0.452 1.266 0.732 1.876 0.263 0.609 0.572 1.219 0.903 1.802 0.337 0.583 0.72 1.166 1.115 1.712 0.394 0.556 0.818 1.097 1.275 1.611 0.452 0.519 0.938 1.007 1.446 1.478 0.515 0.477 1.041 0.927 1.612 1.346 0.537 0.419 1.126 0.827 1.727 1.192s1.212 0.705 1.841 1.017c0.629 0.313 1.292 0.599 1.95 0.853 0.657 0.249 1.344 0.477 2.018 0.668 0.686 0.191 1.389 0.366 2.093 0.488 0.703 0.138 1.424 0.233 2.121 0.297 1.435 0.138 2.887 0.138 4.322 0 0.715-0.064 1.429-0.159 2.133-0.297 0.703-0.122 1.406-0.297 2.081-0.488 0.686-0.191 1.361-0.419 2.018-0.668 0.657-0.254 1.321-0.54 1.95-0.853s1.258-0.652 1.841-1.017c0.6-0.366 1.189-0.774 1.744-1.192s1.098-0.869 1.595-1.346c0.509-0.472 0.995-0.959 1.446-1.478 0.457-0.514 0.892-1.054 1.292-1.611 0.394-0.546 0.76-1.129 1.098-1.712 0.332-0.583 0.64-1.192 0.92-1.802s0.509-1.235 0.715-1.876c0.223-0.636 0.394-1.288 0.526-1.924 0.149-0.652 0.252-1.314 0.326-1.982 0.074-0.662 0.114-1.341 0.114-1.992 0-0.668-0.040-1.346-0.114-2.008s-0.177-1.314-0.326-1.982c-0.131-0.636-0.303-1.288-0.526-1.924-0.206-0.641-0.435-1.261-0.715-1.876-0.28-0.609-0.589-1.219-0.92-1.802-0.337-0.583-0.703-1.166-1.098-1.712-0.4-0.556-0.835-1.097-1.292-1.611-0.452-0.519-0.938-1.017-1.446-1.478-0.497-0.477-1.041-0.922-1.595-1.346-0.555-0.419-1.143-0.811-1.744-1.192-0.583-0.366-1.212-0.705-1.841-1.017s-1.292-0.599-1.95-0.853c-0.657-0.244-1.332-0.477-2.018-0.668-0.675-0.191-1.378-0.35-2.081-0.488-0.703-0.132-1.418-0.228-2.133-0.297-0.72-0.069-1.435-0.095-2.155-0.095-0.715 0-1.446 0.026-2.167 0.095-0.698 0.069-1.418 0.164-2.121 0.297-0.703 0.138-1.406 0.297-2.093 0.488-0.675 0.191-1.361 0.424-2.018 0.668-0.657 0.254-1.321 0.54-1.95 0.853s-1.241 0.652-1.841 1.017c-0.6 0.382-1.189 0.774-1.727 1.192-0.572 0.424-1.098 0.869-1.612 1.346-0.509 0.461-0.995 0.959-1.446 1.478-0.457 0.514-0.88 1.054-1.275 1.611-0.394 0.546-0.778 1.129-1.115 1.712-0.332 0.583-0.64 1.192-0.903 1.802-0.28 0.615-0.526 1.235-0.732 1.876-0.206 0.636-0.383 1.288-0.526 1.924-0.149 0.668-0.252 1.319-0.326 1.982s-0.103 1.341-0.103 2.008c0.006 0.652 0.034 1.33 0.103 1.992zM729.952 328.235c0.074 0.668 0.177 1.33 0.326 1.982 0.143 0.636 0.32 1.288 0.526 1.924 0.206 0.641 0.452 1.266 0.732 1.876 0.263 0.609 0.572 1.219 0.903 1.802 0.337 0.583 0.72 1.166 1.115 1.712 0.394 0.556 0.818 1.097 1.275 1.611 0.452 0.519 0.938 1.017 1.446 1.478 0.515 0.477 1.041 0.927 1.612 1.346 0.537 0.419 1.126 0.816 1.727 1.192 0.6 0.366 1.212 0.705 1.841 1.017s1.292 0.599 1.95 0.853c0.657 0.249 1.344 0.477 2.018 0.668 0.686 0.191 1.389 0.35 2.093 0.488s1.424 0.233 2.121 0.297c1.435 0.138 2.887 0.138 4.322 0 0.715-0.064 1.429-0.159 2.133-0.297s1.406-0.297 2.081-0.488c0.686-0.191 1.361-0.419 2.018-0.668 0.657-0.254 1.321-0.54 1.95-0.853s1.258-0.652 1.841-1.017c0.6-0.376 1.189-0.774 1.744-1.192s1.098-0.869 1.595-1.346c0.509-0.461 0.995-0.959 1.446-1.478 0.457-0.514 0.892-1.054 1.292-1.611 0.394-0.546 0.76-1.129 1.098-1.712 0.332-0.583 0.64-1.192 0.92-1.802s0.509-1.235 0.715-1.876c0.223-0.636 0.394-1.288 0.526-1.924 0.149-0.652 0.252-1.314 0.326-1.982 0.074-0.662 0.114-1.341 0.114-2.008 0-0.662-0.040-1.33-0.114-1.992s-0.177-1.33-0.326-1.982c-0.131-0.636-0.303-1.288-0.526-1.924-0.206-0.641-0.435-1.261-0.715-1.876-0.28-0.609-0.589-1.219-0.92-1.802-0.337-0.583-0.703-1.166-1.098-1.712-0.4-0.556-0.835-1.097-1.292-1.611-0.452-0.519-0.938-1.017-1.446-1.478-0.497-0.477-1.041-0.922-1.595-1.346-0.555-0.419-1.143-0.811-1.744-1.192-0.583-0.366-1.212-0.705-1.841-1.017s-1.292-0.599-1.95-0.843c-0.657-0.254-1.332-0.488-2.018-0.678-0.675-0.191-1.378-0.35-2.081-0.488-0.703-0.132-1.418-0.228-2.133-0.297-0.72-0.069-1.435-0.095-2.155-0.095-0.715 0-1.446 0.026-2.167 0.095-0.698 0.069-1.418 0.164-2.121 0.297-0.703 0.138-1.406 0.297-2.093 0.488-0.675 0.191-1.361 0.424-2.018 0.678-0.657 0.244-1.321 0.53-1.95 0.843s-1.241 0.652-1.841 1.017c-0.6 0.382-1.189 0.774-1.727 1.192-0.572 0.424-1.098 0.869-1.612 1.346-0.509 0.461-0.995 0.959-1.446 1.478-0.457 0.514-0.88 1.054-1.275 1.611-0.394 0.546-0.778 1.129-1.115 1.712-0.332 0.583-0.64 1.192-0.903 1.802-0.28 0.615-0.526 1.235-0.732 1.876-0.206 0.636-0.383 1.288-0.526 1.924-0.149 0.652-0.252 1.319-0.326 1.982s-0.103 1.33-0.103 1.992c0.006 0.668 0.034 1.346 0.103 2.008z" />
<glyph unicode="&#xe916;" glyph-name="hairdryer" d="M512-64c-282.77 0-512 229.23-512 512s229.23 512 512 512c282.77 0 512-229.23 512-512s-229.23-512-512-512zM512-27.429c262.572 0 475.429 212.857 475.429 475.429s-212.857 475.429-475.429 475.429c-262.572 0-475.429-212.857-475.429-475.429s212.857-475.429 475.429-475.429zM706.531 557.197c-11.074 2.219-23.018-2.827-27.934-12.673l-54.723-109.973c-4.927-9.932-1.023-22.37 7.654-29.357l36.853-25.56c6.368-4.416 14.44-5.867 22.006-3.947 7.577 1.942 13.879 7.009 17.211 13.9l57.902 119.552c3.244 6.71 3.343 14.455 0.231 21.239-3.090 6.795-9.073 11.926-16.386 14.092l-42.813 12.726zM723.82 246.54c-83.072 61.732-128.388 42.738-185.746 18.652-37.473-15.692-79.943-33.53-146.765-35.228-30.294-0.814-69.399 3.49-83.522 28.249-7.585 13.323-7.393 31.078-4.119 47.914 14.956-3.914 31.003 3.113 38.599 17.862l86.92 168.631 122.582-62.003c14.854-7.534 32.747-0.979 39.927 14.584l49.165 106.71c2.903 6.308 3.308 13.57 1.103 20.196s-6.819 12.049-12.851 15.079l-216.299 109.398c-35.313 17.862-77.76 2.358-94.831-34.65l-11.377-24.7c-8.192-17.779-9.306-38.235-3.095-56.874 5.098-15.303 14.798-28.343 27.514-37.28l-72.246-176.872c-6.437-15.751-1.328-33.719 11.523-43.434-6.358-25.867-8.586-57.523 6.347-83.85 17.69-31.172 54.016-46.924 108.043-46.924 2.464 0 4.951 0.024 7.495 0.094 73.326 1.898 120.995 21.894 159.301 37.975 54.432 22.837 84.411 35.393 151.39-14.419 8.147-6.048 19.434-4.044 25.207 4.504 5.784 8.524 3.871 20.326-4.265 26.386zM352.305 627.388c9.734 21.127 33.996 30.005 54.184 19.795 20.166-10.234 28.628-35.617 18.894-56.768-9.745-21.139-33.996-29.993-54.162-19.807-20.2 10.186-28.673 35.617-18.917 56.78z" />
<glyph unicode="&#xe917;" glyph-name="tv" d="M512-64c-282.77 0-512 229.23-512 512s229.23 512 512 512c282.77 0 512-229.23 512-512s-229.23-512-512-512zM512-27.429c262.572 0 475.429 212.857 475.429 475.429s-212.857 475.429-475.429 475.429c-262.572 0-475.429-212.857-475.429-475.429s212.857-475.429 475.429-475.429zM675.547 230.839h-70.754v34.303h-185.587v-34.303h-70.754c-10.664 0-19.308-8.694-19.308-19.42s8.645-19.42 19.308-19.42h327.097c10.664 0 19.308 8.694 19.308 19.42 0 10.724-8.646 19.42-19.31 19.42zM219.429 374.857v-53.392c0-10.908 7.794-19.751 17.409-19.751h550.325c9.615 0 17.409 8.843 17.409 19.751v53.392h-585.143zM787.162 704h-550.325c-9.615 0-17.409-7.4-17.409-16.527v-276.045h585.143v276.045c0 9.126-7.794 16.527-17.409 16.527z" />
<glyph unicode="&#xe918;" glyph-name="pets" d="M512-64c-282.77 0-512 229.23-512 512s229.23 512 512 512c282.77 0 512-229.23 512-512s-229.23-512-512-512zM512-27.429c262.572 0 475.429 212.857 475.429 475.429s-212.857 475.429-475.429 475.429c-262.572 0-475.429-212.857-475.429-475.429s212.857-475.429 475.429-475.429zM420.351 474.244c-47.19 0-85.589 51.524-85.589 114.873 0 63.346 38.398 114.883 85.589 114.883 47.202 0 85.598-51.539 85.598-114.883 0-63.349-38.394-114.873-85.598-114.873zM674.239 362.499c2.046-2.757 4.084-5.567 5.794-8.577 34.075-59.98 25.597-129.356-18.911-154.642-8.068-4.584-16.619-6.912-25.441-6.912-20.557 0-39.504 12.48-59.571 25.706-13.089 8.613-26.622 17.537-42.032 24.34-2.163 0.747-12.288 2.001-26.386 2.001-11.856 0-19.106-0.891-20.875-1.474-15.786-6.548-29.997-15.298-43.756-23.778-21.64-13.306-40.315-24.794-60.711-24.794-9.892 0-19.32 2.828-28.057 8.44-21.625 13.907-34.333 38.286-35.72 68.638-1.324 28.589 7.65 59.416 25.25 86.796 1.678 2.619 3.642 5.029 5.626 7.385 1.677 2.010 3.26 3.911 3.979 5.376 20.834 42.826 72.908 88.568 156.601 88.568l3.27-0.018c84.998-1.201 137.463-49.5 156.602-90.469 0.9-1.939 2.583-4.194 4.338-6.586zM602.362 474.244c-47.209 0-85.602 51.524-85.602 114.873 0 63.346 38.394 114.883 85.602 114.883 47.181 0 85.584-51.539 85.584-114.883 0-63.349-38.403-114.873-85.584-114.873zM742.933 533.231c37.829 0 67.455-39.236 67.455-89.323 0-50.065-29.644-89.305-67.455-89.305-37.814 0-67.44 39.239-67.44 89.305 0 50.088 29.608 89.323 67.44 89.323zM354.318 443.909c0-50.065-29.625-89.305-67.442-89.305s-67.448 39.239-67.448 89.305c0 50.087 29.631 89.323 67.448 89.323 37.815 0 67.442-39.236 67.442-89.323z" />
<glyph unicode="&#xe919;" glyph-name="safe" d="M512-64c-282.77 0-512 229.23-512 512s229.23 512 512 512c282.77 0 512-229.23 512-512s-229.23-512-512-512zM512-27.429c262.572 0 475.429 212.857 475.429 475.429s-212.857 475.429-475.429 475.429c-262.572 0-475.429-212.857-475.429-475.429s212.857-475.429 475.429-475.429zM725.075 704h-426.153c-23.668 0-42.922-18.286-42.922-40.766v-404.745c0-21.498 17.616-39.164 39.856-40.664v-11.266c0-8.040 6.864-14.559 15.329-14.559h43.434c8.465 0 15.329 6.52 15.329 14.559v11.164h279.504v-11.161c0-8.040 6.864-14.559 15.329-14.559h43.434c8.465 0 15.329 6.52 15.329 14.559v11.161h1.533c23.668 0 42.922 18.286 42.922 40.766v404.745c-0.003 22.479-19.26 40.766-42.925 40.766zM723.542 298.527c0-21.274-18.223-38.582-40.623-38.582h-346.441c-22.399 0-40.623 17.308-40.623 38.582v327.582c0 21.274 18.223 38.582 40.623 38.582h346.441c22.399 0 40.623-17.308 40.623-38.582v-327.582zM458.481 461.59c0-18.464-15.817-33.486-35.257-33.486s-35.257 15.022-35.257 33.486c0 18.464 15.817 33.486 35.257 33.486s35.257-15.022 35.257-33.486zM682.92 635.572h-346.441c-5.494 0-9.964-4.245-9.964-9.463v-327.582c0-5.218 4.47-9.463 9.964-9.463h346.441c5.494 0 9.964 4.245 9.964 9.463v327.582c0 5.218-4.47 9.463-9.964 9.463zM423.224 398.985c-36.346 0-65.916 28.085-65.916 62.605s29.57 62.605 65.916 62.605c36.346 0 65.916-28.085 65.916-62.605s-29.57-62.605-65.916-62.605zM544.739 398.743h-7.447c-8.465 0-15.329 6.52-15.329 14.559s6.864 14.559 15.329 14.559h7.447c8.465 0 15.329-6.52 15.329-14.559s-6.864-14.559-15.329-14.559zM544.739 446.302h-7.447c-8.465 0-15.329 6.52-15.329 14.559s6.864 14.559 15.329 14.559h7.447c8.465 0 15.329-6.52 15.329-14.559s-6.864-14.559-15.329-14.559zM544.739 493.861h-7.447c-8.465 0-15.329 6.52-15.329 14.559s6.864 14.559 15.329 14.559h7.447c8.465 0 15.329-6.52 15.329-14.559s-6.864-14.559-15.329-14.559zM596.858 398.743h-7.447c-8.465 0-15.329 6.52-15.329 14.559s6.864 14.559 15.329 14.559h7.447c8.465 0 15.329-6.52 15.329-14.559s-6.864-14.559-15.329-14.559zM596.858 446.302h-7.447c-8.465 0-15.329 6.52-15.329 14.559s6.864 14.559 15.329 14.559h7.447c8.465 0 15.329-6.52 15.329-14.559s-6.864-14.559-15.329-14.559zM596.858 493.861h-7.447c-8.465 0-15.329 6.52-15.329 14.559s6.864 14.559 15.329 14.559h7.447c8.465 0 15.329-6.52 15.329-14.559s-6.864-14.559-15.329-14.559zM648.978 398.743h-7.447c-8.465 0-15.329 6.52-15.329 14.559s6.864 14.559 15.329 14.559h7.447c8.465 0 15.329-6.52 15.329-14.559s-6.864-14.559-15.329-14.559zM648.978 446.302h-7.447c-8.465 0-15.329 6.52-15.329 14.559s6.864 14.559 15.329 14.559h7.447c8.465 0 15.329-6.52 15.329-14.559s-6.864-14.559-15.329-14.559zM648.978 493.861h-7.447c-8.465 0-15.329 6.52-15.329 14.559s6.864 14.559 15.329 14.559h7.447c8.465 0 15.329-6.52 15.329-14.559s-6.864-14.559-15.329-14.559z" />
<glyph unicode="&#xe91a;" glyph-name="toiletries" d="M512-64c-282.77 0-512 229.23-512 512s229.23 512 512 512c282.77 0 512-229.23 512-512s-229.23-512-512-512zM512-27.429c262.572 0 475.429 212.857 475.429 475.429s-212.857 475.429-475.429 475.429c-262.572 0-475.429-212.857-475.429-475.429s212.857-475.429 475.429-475.429zM659.893 562.871v-31.752c0-9.422-7.638-17.059-17.059-17.059-9.422 0-17.060 7.638-17.060 17.059v25.349c-33.97-5.261-70.869-7.93-107.643-7.93-88.717 0-178.184 15.507-225.381 45.572v-339.855c0-9.967 18.303-25.936 59.193-39.146 44.143-14.26 103.162-22.113 166.186-22.113 38.155 0 74.836 2.883 107.643 8.319v31.391c0 9.422 7.638 17.059 17.060 17.059s17.059-7.638 17.059-17.059v-24.465c8.553 2.091 16.72 4.38 24.425 6.869 40.89 13.209 59.193 29.179 59.193 39.146v339.855c-20.853-13.285-49.968-23.723-83.618-31.24zM659.893 301.761c0-9.422-7.638-17.060-17.059-17.060-9.422 0-17.060 7.638-17.060 17.060v45.626c0 9.422 7.638 17.059 17.060 17.059s17.059-7.638 17.059-17.059v-45.626zM659.893 416.439c0-9.422-7.638-17.060-17.059-17.060-9.422 0-17.060 7.638-17.060 17.060v45.625c0 9.422 7.638 17.059 17.060 17.059s17.059-7.638 17.059-17.059v-45.625zM684.418 682.445c-43.943 13.899-102.998 21.555-166.287 21.555s-122.343-7.656-166.286-21.556c-40.822-12.915-59.095-28.656-59.095-38.528 0-9.967 18.303-25.936 59.193-39.146 44.143-14.26 103.163-22.114 166.187-22.114 43.285 0 84.68 3.705 120.664 10.644 0.458 0.111 0.922 0.202 1.393 0.275 15.881 3.112 30.698 6.854 44.131 11.193 40.89 13.209 59.193 29.179 59.193 39.146 0 9.874-18.273 25.614-59.095 38.53zM589.287 609.198c-19.225-5.138-44.494-7.966-71.154-7.966s-51.929 2.828-71.154 7.966c-26.744 7.147-40.304 18.693-40.304 34.319-0.002 15.648 13.586 27.139 40.388 34.152 19.11 5 44.348 7.755 71.069 7.755s51.96-2.755 71.069-7.755c26.801-7.014 40.39-18.504 40.39-34.152 0-15.625-13.561-27.172-40.304-34.319zM518.131 651.307c-30.97 0-53.796-4.467-66.948-9.029 13.146-4.673 35.985-9.257 66.948-9.257s53.802 4.584 66.948 9.257c-13.152 4.561-35.979 9.029-66.948 9.029z" />
<glyph unicode="&#xe91b;" glyph-name="jacuzzi" d="M512-64c-282.77 0-512 229.23-512 512s229.23 512 512 512c282.77 0 512-229.23 512-512s-229.23-512-512-512zM512-27.429c262.572 0 475.429 212.857 475.429 475.429s-212.857 475.429-475.429 475.429c-262.572 0-475.429-212.857-475.429-475.429s212.857-475.429 475.429-475.429zM634.435 614.826c-32.25 0-62.402-15.902-81.022-41.673-11.174 5.456-23.315 8.282-35.848 8.282-27.23 0-51.378-13.161-66.625-33.391h277.825c-13.795 38.844-50.812 66.782-94.33 66.782zM528.696 703.87c-27.619 0-50.087-22.468-50.087-50.087s22.468-50.087 50.087-50.087c27.619 0 50.087 22.468 50.087 50.087s-22.468 50.087-50.087 50.087zM476.223 609.261c0-20.198-16.374-36.571-36.571-36.571s-36.571 16.374-36.571 36.571c0 20.198 16.374 36.571 36.571 36.571s36.571-16.374 36.571-36.571zM665.441 664.913c0-20.198-16.374-36.571-36.571-36.571s-36.571 16.374-36.571 36.571c0 20.198 16.374 36.571 36.571 36.571s36.571-16.374 36.571-36.571zM734.609 514.652h-445.218c-18.442 0-33.391-14.949-33.391-33.391s14.949-33.391 33.391-33.391h445.217c18.442 0 33.391 14.949 33.391 33.391s-14.948 33.391-33.39 33.391zM289.391 414.478v-83.478c0-40.317 28.724-74.043 66.783-81.799v-18.375c0-9.217 7.479-16.696 16.696-16.696s16.696 7.479 16.696 16.696v16.696h244.87v-16.696c0-9.217 7.479-16.696 16.696-16.696s16.696 7.479 16.696 16.696v18.375c38.058 7.756 66.783 41.482 66.783 81.799v83.478h-445.22z" />
<glyph unicode="&#xe91c;" glyph-name="flash" d="M795.703 936.864c-8.595 14.729-24.512 23.136-43.598 23.136h-234.334c-27.974 0-57.036-18.255-69.114-43.434l-248.521-516.15c-8.115-16.836-7.615-34.693 1.209-48.857 8.887-14.29 24.617-22.613 43.267-23.010l183.915-2.315-133.138-332.8c-3.275-8.302-10.16-25.7 2.107-43.58 5.361-7.843 14.562-12.642 24.032-12.642h2.148c17.962 0 28.787 13.623 33.982 20.193l430.203 540.205c18.358 23.010 10.784 43.662 8.010 49.67-2.88 5.756-14.436 24.617-43.747 24.617h-136.893l179.136 315.631c9.391 16.648 9.912 34.672 1.337 49.337z" />
<glyph unicode="&#xe91d;" glyph-name="clip" d="M936.496 872.591c-112.145 115.093-291.428 115.068-403.545-0.057l-470.229-493.22c-85.027-91.286-83.402-237.584 3.63-326.768 85.599-87.718 222.308-87.718 307.907 0l425.8 446.616c55.355 58.061 55.355 152.198 0 210.259s-145.104 58.061-200.459 0l-407.287-427.197c-14.206-15.428-13.798-40.013 0.911-54.914 14.349-14.536 37.096-14.536 51.445 0l407.285 427.197c27.008 27.138 69.877 26.171 95.748-2.157 25.090-27.473 25.090-70.802 0-98.274l-425.797-446.614c-57.522-59.476-150.122-58.78-206.826 1.554-56.131 59.724-56.131 155.659 0 215.384l470.229 493.22c83.76 87.887 219.583 87.912 303.373 0.059s83.814-230.318 0.056-318.205l-470.231-493.22c-15.531-13.951-17.341-38.468-4.040-54.759s36.675-18.189 52.207-4.237c1.449 1.302 2.799 2.717 4.040 4.237l470.231 493.22c111.419 119.442 109.429 311.009-4.447 427.875z" />
<glyph unicode="&#xe91e;" glyph-name="clock" d="M511.814 960c141.335 0 269.301-57.448 362.194-149.93 92.52-92.879 149.992-220.792 149.992-362.070s-57.472-269.191-149.992-362.070c-92.917-92.482-220.858-149.93-362.194-149.93s-269.277 57.448-361.797 149.93c-92.917 92.879-150.017 220.767-150.017 362.070 0 141.277 57.075 269.191 149.992 362.070 92.545 92.482 220.486 149.93 361.822 149.93zM772.855 475.943c15.354 0 27.558-12.595 27.558-27.943s-12.204-27.943-27.558-27.943h-261.041c-10.244 0-19.298 5.901-24.011 14.157l-0.397 0.397-0.397 0.793v0.397l-0.794 1.587v0.397l-0.397 0.793-0.397 0.397v0.793l-0.397 0.793v0.397l-0.397 0.793v1.587l-0.397 0.397v337.598c0 15.348 12.204 27.546 27.558 27.546s27.955-12.199 27.955-27.546v-305.39h233.112zM834.643 770.696c-82.673 82.639-196.848 133.418-322.829 133.418s-240.156-50.754-322.829-133.418c-82.276-82.639-133.472-196.767-133.472-322.696s51.171-240.057 133.472-322.721c82.673-82.639 196.848-133.418 322.829-133.418s240.156 50.779 322.829 133.418c82.673 82.639 133.869 196.767 133.869 322.721 0 125.93-51.171 240.057-133.869 322.696z" />
<glyph unicode="&#xe91f;" glyph-name="bed" horiz-adv-x="1147" d="M46.285 214.938v163.021c0 38.502 31.539 69.632 69.632 69.632h883.917c38.502 0 69.632-31.13 69.632-69.632v-163.021zM46.285 76.083v92.979h1023.181v-92.979zM772.506 520.909c-12.819-16.463-32.619-26.969-54.876-27.034h-319.499c-0.033 0-0.072 0-0.111 0-38.457 0-69.632 31.175-69.632 69.632 0 6.112 0.787 12.040 2.266 17.688l-0.108-0.485 22.938 92.979c7.632 30.758 34.98 53.203 67.579 53.248h273.208c31.949 0 59.802-21.709 67.584-53.248l23.347-92.979c1.387-5.193 2.184-11.156 2.184-17.304 0-16.072-5.445-30.872-14.591-42.656l0.118 0.158zM139.264 842.854c0 38.502 31.539 69.632 69.632 69.632h697.549c38.502 0 69.632-31.13 69.632-69.632v-348.979h-165.888c21.299 28.262 28.672 63.898 20.48 98.304l-23.757 92.979c-13.068 50.92-58.514 87.967-112.629 88.064h-273.214c-53.248 0-99.533-36.454-112.64-88.064l-23.347-93.389c-8.192-33.997-1.229-69.632 20.48-97.894h-166.298zM1022.362 491.827v351.027c0 0 0 0 0 0.001 0 64.101-51.848 116.093-115.894 116.326h-697.571c-64.245 0-116.326-52.081-116.326-116.326v0-351.027c-53.271-11.199-92.732-57.685-92.979-113.432v-418.638c1.577-11.498 11.336-20.262 23.142-20.262s21.566 8.763 23.129 20.14l0.014 0.122v69.632h1022.771v-69.632c1.577-11.498 11.336-20.262 23.142-20.262s21.566 8.763 23.129 20.14l0.014 0.122v418.611c0 56.115-39.731 102.81-92.979 113.459z" />
<glyph unicode="&#xe920;" glyph-name="arrival" d="M820.571 270.769h-617.143c-11.355 0-20.571-9.452-20.571-21.099s9.216-21.099 20.571-21.099h617.143c11.355 0 20.571 9.452 20.571 21.099s-9.216 21.099-20.571 21.099zM532.571 692.747v42.198h41.143c11.355 0 20.571 9.452 20.571 21.099s-9.216 21.099-20.571 21.099h-123.429c-11.355 0-20.571-9.452-20.571-21.099s9.216-21.099 20.571-21.099h41.143c0 0-0.144-43.928 0-42.198-172.142-10.95-308.571-158.263-308.571-337.582 0-17.132 0-9.452 0-21.099s9.216-21.099 20.571-21.099h617.143c11.355 0 20.571 9.452 20.571 21.099s0 2.638 0 21.099c0 179.319-136.43 326.632-308.571 337.582zM224 355.165c0 163.137 128.941 295.385 288 295.385s288-132.247 288-295.385h-576zM512-64c-282.77 0-512 229.23-512 512s229.23 512 512 512c282.77 0 512-229.23 512-512s-229.23-512-512-512zM512-27.429c262.572 0 475.429 212.857 475.429 475.429s-212.857 475.429-475.429 475.429c-262.572 0-475.429-212.857-475.429-475.429s212.857-475.429 475.429-475.429z" />
<glyph unicode="&#xe921;" glyph-name="double-bed" horiz-adv-x="1638" d="M1581.875 220.262h-1525.35v142.131c0 47.104 38.093 85.606 84.787 85.606h1355.776c46.694 0 84.787-38.502 84.787-85.606zM1525.35 134.656h-1412.301v28.672h1412.301zM734.003 504.934h-366.592v151.142c47.104 17.613 136.806 47.923 183.091 47.923 46.694 0 136.397-30.31 183.501-47.923zM1270.579 504.934h-366.592v151.142c47.104 17.613 136.806 47.923 183.501 47.923 46.285 0 135.987-30.31 183.091-47.923zM169.574 704c0 0.122 0 0.267 0 0.411 0 109.427 88.475 198.189 197.793 198.654h903.622c109.362-0.465 197.837-89.227 197.837-198.654 0-0.145 0-0.289 0-0.434v0.022-199.066h-141.312v170.803c-0.101 11.748-7.253 21.802-17.426 26.143l-0.187 0.071c-6.144 2.458-147.456 58.982-222.413 58.982s-216.269-56.525-222.413-58.982c-10.36-4.413-17.512-14.466-17.613-26.202v-170.816h-56.525v170.803c-0.101 11.748-7.253 21.802-17.426 26.143l-0.187 0.071c-6.144 2.458-147.456 58.982-222.413 58.982-75.366 0-216.269-56.525-222.413-58.982-10.36-4.413-17.512-14.466-17.613-26.202v-170.816h-141.312zM1525.35 502.067v201.933c0 0.122 0 0.267 0 0.413 0 140.727-113.732 254.89-254.295 255.587h-903.645c-140.629-0.698-254.362-114.861-254.362-255.587 0-0.145 0-0.29 0-0.435v0.023-201.933c-65.042-14.112-113.050-71.178-113.050-139.457 0-0.076 0-0.153 0-0.229v0.012-170.394c0-15.565 12.288-28.672 28.262-28.672h28.262v-227.328h56.525v142.131h1412.301v-142.131h56.525v227.738h28.262c15.517 0.227 28.035 12.746 28.262 28.241v170.416c-0.095 68.199-48.071 125.166-112.109 139.092l-0.941 0.172z" />
<glyph unicode="&#xe922;" glyph-name="user" horiz-adv-x="768" d="M382.080 458.88c111.36 0 201.6 112.64 201.6 250.88s-30.080 250.24-201.6 250.24c-171.52 0-200.96-112-200.96-250.24s89.6-250.88 200.96-250.88zM3.2 49.28c0 62.080-1.28 17.28 0 0zM762.24 46.080c1.28 9.6 0 67.2 0 0zM761.6 86.4c-3.2 241.28-33.92 309.76-268.8 353.28 0 0-33.28-42.88-110.080-42.88s-110.080 42.88-110.080 42.88c-232.96-42.88-264.96-110.72-269.44-345.6 0-19.2 0-19.2-0.64-17.28v-25.6s55.68-115.2 380.16-115.2c323.84 0 379.52 115.2 379.52 115.2-0.010 5.229-0.016 11.414-0.016 17.6 0 6.192 0.006 12.383 0.018 18.572l-0.001-0.972z" />
<glyph unicode="&#xe923;" glyph-name="ticket" d="M749.154 680.727c0-18.648-6.702-36.182-18.839-49.37-12.143-13.188-28.287-20.448-45.458-20.448-35.446 0-64.286 31.321-64.286 69.818v23.273h-474.286v-512h474.286v23.273c0 38.497 28.839 69.818 64.286 69.818s64.286-31.321 64.286-69.818v-23.273h128.571v512h-128.56v-23.273zM789.868 657.455h44.989v-418.909h-45.011c-8.544 45.521-41.646 81.442-83.56 90.727v48.909h-42.857v-48.909c-41.914-9.285-75.017-45.206-83.56-90.727h-390.725v418.909h390.725c8.544-45.521 41.646-81.442 83.56-90.727v-48.909h42.857v48.867c20.446 4.485 39.247 15.376 54.33 31.764 15.089 16.382 25.123 36.794 29.252 59.006zM663.429 471.273h42.857v-46.545h-42.857z" />
<glyph unicode="&#xe924;" glyph-name="sport" d="M146.286 703.279v-510.558h723.965v510.558h-723.965zM485.878 388.427c-24.080 9.080-41.26 32.355-41.26 59.573s17.178 50.492 41.26 59.573v-119.145zM530.659 507.573c24.080-9.080 41.26-32.355 41.26-59.573s-17.178-50.492-41.26-59.573v119.145zM191.067 528.572h60.68v-161.144h-60.68v161.144zM191.067 322.647h105.462v250.707h-105.462v85.144h294.81v-104.405c-49.080-10.346-86.041-53.979-86.041-106.093s36.96-95.747 86.041-106.093v-104.405h-294.81v85.144zM530.659 237.502v104.405c49.080 10.346 86.041 53.979 86.041 106.093s-36.96 95.747-86.041 106.093v104.405h294.81v-85.144h-105.462v-250.707h105.462v-85.144h-294.81zM825.469 528.572v-161.144h-60.68v161.144h60.68z" />
<glyph unicode="&#xe925;" glyph-name="vacation" d="M745 623.225c42.095 0 76.341 34.247 76.341 76.34 0 42.095-34.247 76.341-76.341 76.341s-76.341-34.247-76.341-76.341c0.001-42.093 34.247-76.34 76.341-76.34zM745 736.937c20.607 0 37.372-16.766 37.372-37.372s-16.764-37.37-37.372-37.37c-20.607 0-37.372 16.764-37.372 37.37s16.766 37.372 37.372 37.372zM796.004 195.495c-4.681 34.99-35.803 66.588-88.86 89.369-32.582 13.99-71.67 24.074-114.2 29.713 4.958 40.713 19.169 76.842 42.394 107.517 9.664 12.764 19.158 22.141 26.227 28.322 13.575-14.381 33.809-40.991 24.203-63.939-4.155-9.927 0.523-21.342 10.45-25.498 2.46-1.030 5.008-1.517 7.517-1.517 7.619 0 14.855 4.498 17.981 11.965 12.539 29.956 2.056 58.952-12.12 80.922 11.662-6.4 24.405-17.322 36.215-35.753 3.72-5.806 10.005-8.975 16.424-8.975 3.599 0 7.238 0.995 10.493 3.082 9.060 5.805 11.7 17.857 5.895 26.917-33.986 53.045-76.182 62.080-100.237 62.291-1.905 6.289-4.711 13.334-8.858 20.546-11.644 20.248-36.213 45.626-87.125 51.548-10.685 1.238-20.363-6.415-21.606-17.105-1.243-10.688 6.415-20.362 17.105-21.606 28.202-3.279 44.263-14.15 53.415-25.596-23.173 4.003-52.897 2.196-81.016-19.897-8.462-6.649-9.933-18.897-3.284-27.358 3.844-4.894 9.56-7.449 15.335-7.448 4.212 0 8.456 1.359 12.025 4.164 17.069 13.41 35.584 14.591 50.344 12.138-25.832-26.005-61.525-74.694-70.583-150.887-13.872 0.92-27.991 1.395-42.267 1.395-9.57 0-19.068-0.216-28.47-0.633 5.274 97.671-31.571 155.647-58.225 184.392 20.218 5.397 49.123 7.044 75.517-13.695 3.569-2.804 7.812-4.164 12.025-4.164 5.775 0 11.492 2.556 15.335 7.448 6.649 8.462 5.178 20.711-3.282 27.36-28.103 22.081-62.398 30.031-99.176 22.985-2.582-0.495-5.090-1.049-7.518-1.647 0.135 0.24 0.264 0.48 0.402 0.719 13.605 23.656 38.697 37.766 74.576 41.939 10.69 1.244 18.347 10.916 17.105 21.604-1.243 10.69-10.91 18.34-21.606 17.105-60.804-7.070-90.039-37.195-103.857-61.22-5.652-9.829-9.206-19.375-11.442-27.584-27.778 0.579-80.507-8.356-122.97-74.477-5.815-9.054-3.188-21.108 5.866-26.923 3.258-2.094 6.905-3.092 10.511-3.092 6.412 0 12.691 3.163 16.414 8.959 20.317 31.636 42.871 45.96 61.392 52.188-20.843-27.028-41.078-67.136-23.755-108.518 3.127-7.469 10.363-11.965 17.981-11.965 2.508 0 5.057 0.487 7.517 1.517 9.927 4.155 14.605 15.571 10.45 25.498-13.409 32.030 16.079 68.567 33.295 86.222 20.486-19.287 60.968-70.279 54.211-167.631-47.706-5.196-91.601-15.883-127.571-31.329-50.206-21.558-80.778-50.822-87.887-83.551-15.138 5.782-33.859 10.772-62.933 10.772-10.762 0-19.485-8.723-19.485-19.485s8.723-19.485 19.485-19.485c30.572 0 44.893-6.202 61.474-13.385 17.959-7.777 38.315-16.592 76.96-16.592 38.647 0 59.001 8.815 76.96 16.594 16.582 7.181 30.903 13.383 61.473 13.383 30.572 0 44.893-6.202 61.476-13.383 17.959-7.777 38.315-16.592 76.962-16.592 38.649 0 59.006 8.815 76.966 16.594 16.583 7.181 30.906 13.383 61.479 13.383s44.894-6.202 61.479-13.383c17.96-7.777 38.316-16.594 76.966-16.594 10.762 0 19.485 8.723 19.485 19.485s-8.723 19.485-19.485 19.485c-30.581 0.001-45.383 6.204-61.968 13.386zM642.556 195.495c-16.585-7.182-30.906-13.385-61.48-13.385-30.572 0-44.893 6.202-61.476 13.383-17.959 7.777-38.315 16.592-76.962 16.592s-59.001-8.815-76.96-16.594c-16.582-7.181-30.903-13.383-61.473-13.383-16.462 0-28.208 1.8-38.136 4.582 0.211 21.429 24.806 44.722 65.895 62.365 47.733 20.495 111.624 31.783 179.903 31.783s132.171-11.288 179.903-31.783c26.312-11.298 45.846-24.912 56.563-38.871-8.377 1.192-17.859 1.902-28.812 1.902-38.647 0-59.003-8.815-76.963-16.592z" />
<glyph unicode="&#xe926;" glyph-name="location-filled" d="M902.247 705.136c-4.233 13.661-12.828 28.217-19.187 40.961-76.091 157.469-242.349 213.903-376.593 213.903-179.711 0-377.641-103.768-404.066-317.659v-43.699c0-1.824 0.73-18.206 1.767-26.4 14.813-101.935 108.22-210.27 177.98-312.205 75.052-109.213 152.929-216.648 230.084-324.037 47.576 70.080 94.98 141.082 141.472 209.348 12.671 20.034 27.379 40.056 40.064 59.179 8.455 12.732 24.606 25.465 31.985 37.311 75.049 118.322 195.848 237.558 195.848 354.982v48.239c0.003 12.73-18.322 57.331-19.353 60.076v0zM509.756 485.767c-52.826 0-110.648 22.746-139.188 85.562-4.252 9.999-3.909 30.038-3.909 31.874v28.217c0 80.080 78.961 116.496 147.654 116.496 84.568 0 149.973-58.262 149.973-131.085 0-72.821-69.962-131.064-154.529-131.064v0z" />
<glyph unicode="&#xe927;" glyph-name="emblem" horiz-adv-x="960" d="M911.508 221.537l-133.971 134.562c5.774 16.393 3.956 34.363 2.294 50.531-1.277 12.421-2.484 24.155-0.215 32.683 2.099 7.887 8.783 17.106 15.86 26.865 11.573 15.958 24.69 34.046 24.69 56.42s-13.117 40.461-24.69 56.42c-7.077 9.76-13.763 18.977-15.86 26.865-2.27 8.526-1.062 20.262 0.215 32.685 1.985 19.298 4.235 41.171-6.529 59.856-10.913 18.946-31.068 27.947-48.849 35.888-11.216 5.009-21.811 9.741-27.816 15.773-6.007 6.034-10.717 16.673-15.705 27.939-7.905 17.859-16.869 38.101-35.732 49.061-9.67 5.621-20.851 8.239-35.183 8.239-8.226 0-16.455-0.854-24.411-1.681-7.372-0.764-14.334-1.488-20.692-1.488-4.788 0-8.664 0.416-11.851 1.272-7.854 2.108-17.031 8.821-26.749 15.929-15.889 11.622-33.898 24.796-56.174 24.796s-40.285-13.174-56.174-24.796c-9.717-7.108-18.894-13.823-26.75-15.929-3.186-0.856-7.062-1.272-11.849-1.272-6.36 0-13.321 0.724-20.694 1.488-7.956 0.827-16.185 1.681-24.413 1.681-14.332 0-25.511-2.617-35.179-8.237-18.865-10.96-27.827-31.204-35.734-49.065-4.987-11.264-9.699-21.904-15.703-27.938-6.007-6.034-16.602-10.764-27.818-15.775-17.781-7.94-37.935-16.941-48.851-35.888-10.763-18.684-8.513-40.557-6.529-59.854 1.277-12.423 2.485-24.158 0.215-32.685-2.099-7.888-8.783-17.106-15.86-26.865-11.571-15.958-24.688-34.045-24.688-56.42s13.117-40.461 24.688-56.42c7.077-9.76 13.761-18.979 15.86-26.867 2.27-8.526 1.062-20.26-0.215-32.683-1.664-16.167-3.482-34.136 2.292-50.531l-133.968-134.56c-5.162-5.185-6.942-12.866-4.591-19.807 2.352-6.941 8.427-11.937 15.666-12.883l148.984-19.474 19.387-149.633c0.942-7.271 5.916-13.374 12.829-15.735 2.020-0.689 4.102-1.026 6.168-1.026 5.002 0 9.9 1.968 13.553 5.64l180.857 181.689c13.998-9.901 29.738-19.263 48.514-19.263s34.515 9.362 48.514 19.263l180.857-181.689c3.653-3.669 8.551-5.64 13.553-5.64 2.066 0 4.148 0.337 6.168 1.026 6.913 2.363 11.887 8.464 12.829 15.735l19.387 149.633 148.984 19.474c7.239 0.946 13.314 5.942 15.666 12.885 2.356 6.939 0.575 14.62-4.586 19.805v0zM224.93 189.026c-1.122 8.658-7.907 15.473-16.528 16.6l-125.008 16.34 103.555 104.011c9.117-6.248 19.334-10.832 28.878-15.095 11.216-5.009 21.811-9.74 27.816-15.771 6.007-6.034 10.717-16.673 15.705-27.938 7.907-17.861 16.869-38.102 35.732-49.063 9.67-5.621 20.849-8.239 35.181-8.239 8.226 0 16.455 0.854 24.411 1.681 7.372 0.764 14.332 1.486 20.692 1.486 4.787 0 8.664-0.416 11.852-1.272 0.401-0.108 0.81-0.235 1.219-0.367l-147.24-147.918-16.267 125.544zM436.526 226.949c-12.126 8.871-24.666 18.042-39.413 22.001-6.46 1.734-13.573 2.579-21.749 2.579-8.332 0-16.619-0.86-24.63-1.692-7.314-0.759-14.221-1.475-20.473-1.475-7.212 0-12.442 1.003-15.989 3.064-8.095 4.703-14.101 18.268-19.907 31.385-6.188 13.979-12.588 28.431-23.623 39.516-11.037 11.083-25.427 17.511-39.344 23.726-13.060 5.832-26.568 11.864-31.251 19.996-4.537 7.874-3.033 22.489-1.58 36.622 1.578 15.343 3.21 31.206-0.88 46.577-3.943 14.815-13.075 27.408-21.905 39.587-8.918 12.3-17.343 23.918-17.343 33.76 0 9.844 8.423 21.46 17.343 33.759 8.83 12.179 17.964 24.774 21.905 39.587 4.091 15.374 2.46 31.237 0.88 46.579-1.453 14.133-2.956 28.748 1.578 36.622 4.684 8.13 18.19 14.162 31.252 19.996 13.918 6.215 28.309 12.643 39.347 23.728 11.033 11.085 17.433 25.538 23.621 39.516 5.808 13.117 11.812 26.682 19.911 31.387 3.546 2.062 8.776 3.063 15.987 3.063 6.252 0 13.161-0.717 20.473-1.475 8.013-0.832 16.298-1.692 24.632-1.692 8.175 0 15.289 0.843 21.745 2.577 14.75 3.959 27.289 13.13 39.417 22.001 12.247 8.957 23.812 17.419 33.614 17.419 9.799 0 21.367-8.462 33.614-17.419 12.126-8.871 24.666-18.042 39.415-22.001 6.458-1.734 13.571-2.577 21.745-2.577 8.332 0 16.617 0.86 24.63 1.692 7.314 0.759 14.221 1.475 20.475 1.475 7.214 0 12.444-1.003 15.991-3.063 8.095-4.705 14.101-18.268 19.907-31.385 6.188-13.977 12.588-28.431 23.623-39.516s25.427-17.513 39.344-23.728c13.060-5.834 26.566-11.864 31.249-19.996 4.537-7.876 3.035-22.491 1.58-36.625-1.578-15.341-3.21-31.204 0.88-46.576 3.942-14.815 13.075-27.408 21.907-39.587 8.92-12.3 17.343-23.916 17.343-33.76s-8.425-21.46-17.343-33.76c-8.832-12.179-17.966-24.772-21.907-39.587-4.089-15.372-2.458-31.235-0.881-46.574 1.454-14.135 2.958-28.751-1.582-36.629-4.683-8.13-18.186-14.16-31.249-19.992-13.916-6.215-28.309-12.641-39.346-23.728-11.033-11.083-17.431-25.537-23.619-39.514-5.808-13.119-11.812-26.684-19.911-31.389-3.544-2.060-8.776-3.063-15.989-3.063-6.252 0-13.159 0.717-20.473 1.475-8.013 0.832-16.296 1.692-24.63 1.692-8.175 0-15.29-0.843-21.747-2.577-14.748-3.959-27.289-13.132-39.415-22.001-12.247-8.957-23.814-17.419-33.614-17.419-9.801 0-21.369 8.462-33.616 17.419v0zM731.878 205.628c-8.621-1.127-15.405-7.942-16.528-16.6l-16.267-125.546-147.24 147.918c0.411 0.132 0.819 0.26 1.221 0.368 3.186 0.856 7.062 1.272 11.851 1.272 6.358 0 13.32-0.724 20.69-1.486 7.958-0.827 16.186-1.681 24.411-1.681 14.332 0 25.513 2.619 35.179 8.237 18.867 10.96 27.829 31.206 35.736 49.066 4.985 11.264 9.697 21.904 15.701 27.936 6.007 6.032 16.601 10.764 27.818 15.771 9.546 4.263 19.765 8.847 28.88 15.095l103.556-104.012-125.009-16.338zM594.054 332.917c5.998 4.377 8.944 11.835 7.564 19.151l-21.96 116.408 85.888 81.208c5.398 5.104 7.38 12.877 5.089 19.959-2.292 7.082-8.444 12.201-15.8 13.143l-117.013 14.994-50.357 107.143c-3.164 6.734-9.913 11.030-17.327 11.030s-14.163-4.296-17.327-11.030l-50.358-107.143-117.011-14.994c-7.354-0.942-13.508-6.061-15.8-13.143-2.29-7.082-0.308-14.855 5.089-19.959l85.888-81.208-21.962-116.408c-1.38-7.317 1.566-14.774 7.564-19.151 3.341-2.438 7.294-3.675 11.265-3.675 3.157 0 6.329 0.783 9.208 2.368l103.443 56.947 103.441-56.947c6.502-3.579 14.477-3.072 20.473 1.307v0zM479.35 427.38c-2.869 1.58-6.040 2.368-9.21 2.368s-6.341-0.79-9.21-2.368l-77.061-42.424 16.36 86.718c1.217 6.455-0.929 13.090-5.692 17.595l-63.983 60.496 87.167 11.169c6.489 0.832 12.11 4.932 14.902 10.874l37.515 79.816 37.513-79.816c2.792-5.942 8.413-10.042 14.902-10.874l87.171-11.169-63.983-60.496c-4.763-4.503-6.911-11.138-5.692-17.595l16.36-86.718-77.060 42.424z" />
<glyph unicode="&#xe928;" glyph-name="world" horiz-adv-x="960" d="M252.511 403.226h-41.387c-9.567 0-17.322-7.755-17.322-17.322s7.755-17.322 17.322-17.322h41.387c9.567 0 17.322 7.755 17.322 17.322s-7.757 17.322-17.322 17.322v0zM803.368 555.974c47.15 74.583 71.056 129.968 71.056 164.619-0.002 84.957-69.118 154.073-154.075 154.073-76.215 0-139.669-55.628-151.926-128.411-39.589 13.568-81.001 20.447-123.381 20.447-101.716 0-197.342-39.61-269.266-111.532-71.922-71.924-111.534-167.552-111.534-269.266 0-101.716 39.61-197.342 111.534-269.266 71.926-71.922 167.553-111.532 269.27-111.532 101.714 0 197.342 39.61 269.264 111.534 71.924 71.922 111.534 167.55 111.534 269.266 0 53.792-10.977 105.659-32.595 154.318 3.347 5.131 6.728 10.388 10.118 15.751v0zM720.349 840.023c65.855 0 119.43-53.577 119.43-119.43 0-50.985-76.643-166.514-119.431-225.121-42.79 58.597-119.428 174.105-119.428 225.121-0.002 65.853 53.577 119.43 119.43 119.43v0zM566.949 709.978c4.162-34.909 27.783-86.618 70.384-154.006 34.211-54.115 67.85-98.148 69.265-99.996 3.277-4.28 8.361-6.79 13.752-6.79s10.475 2.51 13.752 6.79c0.935 1.219 15.929 20.847 35.856 49.619 12.122-32.811 19.085-67.088 20.802-102.369h-191.794c-1.601 92.645-16.016 179.365-41.010 245.795-11.666 31.006-25.261 56.314-40.279 75.411 16.731-3.574 33.177-8.394 49.271-14.453v0zM445.046 732.057c54.874 0.002 115.834-134.158 119.272-328.831h-200.247c-9.567 0-17.322-7.755-17.322-17.322s7.755-17.322 17.322-17.322h200.245c-0.934-52.891-6.115-101.309-14.266-143.789-33.804 9.673-69.097 14.687-105.007 14.687-35.922 0-71.21-5.016-105.007-14.684-9.033 47.076-14.424 101.441-14.424 161.108 0 58.941 5.262 112.703 14.098 159.383 33.871-9.712 69.26-14.76 105.335-14.76 24.071 0 48.165 2.264 71.614 6.726 9.397 1.789 15.565 10.857 13.778 20.256-1.789 9.397-10.863 15.564-20.256 13.778-21.318-4.059-43.232-6.116-65.136-6.116-33.589 0-66.53 4.793-97.999 14.048 23.272 94.926 61.948 152.838 98.001 152.838v0zM372.35 724.354c-14.992-19.089-28.566-44.37-40.215-75.333-6.783-18.022-12.78-37.547-17.959-58.271-34.091 13.918-65.946 33.327-94.398 57.76 43.014 36.951 95.175 63.528 152.572 75.844v0zM99.321 368.582h52.421c9.567 0 17.322 7.755 17.322 17.322s-7.755 17.322-17.322 17.322h-52.421c4.239 85.579 39.697 163.079 95.2 221.319 33.495-29.309 71.385-52.205 112.054-68.068-10.197-52.188-15.607-110.325-15.607-170.573 0-60.9 5.527-119.646 15.94-172.268-40.409-15.721-78.089-38.392-111.427-67.358-56.049 58.351-91.896 136.241-96.159 222.305v0zM220.822 122.413c28.287 24.086 59.941 43.22 93.765 56.979 5.086-20.106 10.946-39.063 17.545-56.605 11.649-30.963 25.222-56.244 40.215-75.333-56.935 12.217-108.711 38.472-151.525 74.959v0zM445.046 39.749c-35.834 0-74.259 57.221-97.571 151.129 31.363 9.189 64.166 13.96 97.571 13.96 33.395 0 66.198-4.777 97.569-13.97-23.315-93.9-61.739-151.118-97.569-151.118v0zM517.743 47.454c14.992 19.089 28.566 44.37 40.215 75.333 6.598 17.538 12.458 36.494 17.542 56.598 33.825-13.759 65.475-32.9 93.758-56.979-42.813-36.483-94.585-62.735-151.515-74.952v0zM694.609 146.279c-33.333 28.959-71.018 51.631-111.429 67.355 9.421 47.615 14.841 100.246 15.785 154.95h191.799c-4.263-86.066-40.107-163.956-96.156-222.305v0zM814.544 720.593c0 51.94-42.255 94.195-94.193 94.195s-94.193-42.255-94.193-94.195c0-51.938 42.255-94.193 94.193-94.193 51.936 0 94.193 42.253 94.193 94.193v0zM660.8 720.593c0 32.837 26.714 59.551 59.549 59.551s59.549-26.714 59.549-59.551c0-32.837-26.714-59.549-59.549-59.549s-59.549 26.712-59.549 59.549v0z" />
<glyph unicode="&#xe929;" glyph-name="zero-percent" horiz-adv-x="960" d="M479.544 832c-217.367 0-394.211-176.844-394.211-394.211s176.844-394.211 394.211-394.211c217.367 0 394.211 176.844 394.211 394.211s-176.84 394.211-394.211 394.211v0zM479.585 85.038c-194.484 0-352.707 158.227-352.707 352.711s158.223 352.707 352.707 352.707c194.484 0 352.707-158.223 352.707-352.707s-158.223-352.711-352.707-352.711v0zM208.213 440.939c0 49.721 8.512 86.674 25.536 110.859s41.479 36.277 73.365 36.277c34.048 0 59.043-11.957 74.987-35.872s23.915-61.002 23.915-111.264c0-49.991-8.579-87.147-25.739-111.467s-41.682-36.48-73.568-36.48c-33.778 0-58.638 12.768-74.581 38.304s-23.915 62.083-23.915 109.643v0zM260.907 440.939c0-32.967 3.58-58.435 10.741-76.405s18.983-26.955 35.467-26.955c15.943 0 27.63 8.242 35.061 24.725s11.147 42.695 11.147 78.635c0 32.697-3.513 57.963-10.539 75.797s-19.051 26.752-36.075 26.752c-16.213 0-27.9-8.377-35.061-25.131s-10.741-42.56-10.741-77.419v0zM442.496 518.357c0 12.16 1.756 22.564 5.269 31.211s8.377 15.808 14.592 21.483c6.215 5.675 13.714 9.796 22.496 12.363s18.308 3.851 28.576 3.851c10.268 0 19.726-1.216 28.373-3.648s16.146-6.35 22.496-11.755c6.35-5.404 11.282-12.498 14.795-21.28s5.404-19.523 5.675-32.224c-0.27-12.701-2.162-23.442-5.675-32.224s-8.444-15.876-14.795-21.28c-6.35-5.404-13.849-9.323-22.496-11.755s-18.105-3.648-28.373-3.648c-10.268 0-19.794 1.216-28.576 3.648s-16.281 6.35-22.496 11.755c-6.215 5.404-11.079 12.498-14.592 21.28s-5.269 19.523-5.269 32.224v0zM489.515 518.357c0-23.239 7.971-34.859 23.915-34.859 8.377 0 14.389 2.5 18.037 7.499s5.607 14.119 5.877 27.36c-0.27 12.971-2.229 22.023-5.877 27.157s-9.66 7.701-18.037 7.701c-8.377 0-14.457-2.567-18.24-7.701s-5.675-14.187-5.675-27.157v0zM607.061 368.384c0 12.16 1.756 22.564 5.269 31.211s8.377 15.808 14.592 21.483c6.215 5.675 13.714 9.796 22.496 12.363s18.308 3.851 28.576 3.851c10.268 0 19.726-1.216 28.373-3.648s16.146-6.35 22.496-11.755c6.35-5.404 11.282-12.498 14.795-21.28s5.404-19.523 5.675-32.224c-0.27-12.701-2.162-23.442-5.675-32.224s-8.444-15.876-14.795-21.28c-6.35-5.404-13.849-9.323-22.496-11.755s-18.105-3.648-28.373-3.648c-10.268 0-19.794 1.216-28.576 3.648s-16.281 6.35-22.496 11.755c-6.215 5.404-11.079 12.498-14.592 21.28s-5.269 19.523-5.269 32.224v0zM654.080 368.384c0-23.239 7.971-34.859 23.915-34.859 8.377 0 14.389 2.5 18.037 7.499s5.607 14.119 5.877 27.36c-0.27 12.971-2.229 22.023-5.877 27.157s-9.66 7.701-18.037 7.701c-8.377 0-14.457-2.567-18.24-7.701s-5.675-14.187-5.675-27.157v0zM696.235 588.075l29.589-26.752-233.472-268.331-29.589 27.968 233.472 267.115z" />
<glyph unicode="&#xe92a;" glyph-name="garantie" horiz-adv-x="960" d="M564.852 525.584l-134.478-134.478-47.697 47.862c-8.778 8.778-22.855 8.778-31.632 0s-8.778-22.855 0-31.632l63.596-63.596c4.306-4.306 10.102-6.625 15.733-6.625s11.427 2.153 15.733 6.625l150.212 150.212c8.778 8.778 8.778 22.855 0 31.632-8.612 8.778-22.689 8.778-31.467 0v0zM819.235 588.020v106.158c0 16.065-6.293 36.104-35.938 39.913-6.293 0.828-12.587 1.491-18.714 2.319-19.211 2.153-37.263 4.306-54.818 8.281-68.564 15.071-134.313 45.709-207.183 96.387-9.771 6.79-17.555 12.255-28.651 12.255s-19.211-5.631-28.486-12.090c-97.381-67.239-185.487-101.356-277.072-106.986-27.989-1.822-40.079-14.74-40.079-43.225v-69.061c-0.166-63.761-0.166-129.841 0.497-194.762 0.166-22.855 3.147-46.537 8.612-70.551 12.752-55.812 42.066-106.324 89.597-154.186 60.449-60.946 136.3-108.146 232.025-144.249 4.306-1.656 9.274-2.484 14.408-2.484 6.293 0 12.918 1.325 18.383 3.809 5.631 2.484 11.262 4.803 16.893 7.287 23.517 10.102 47.697 20.536 71.048 32.792 77.342 40.907 135.638 88.935 178.366 146.899 37.594 51.009 56.971 102.184 59.455 156.339 0.497 10.765 0.828 22.192 0.994 34.944v0.662l0.828 107.814v3.478l-0.166 38.257zM774.519 551.916v-4.14l-0.828-105.165v-3.809c-0.166-12.587-0.497-23.683-0.828-34.116-1.987-44.881-18.549-87.941-50.678-131.663-38.754-52.5-92.081-96.387-163.295-133.981-21.695-11.427-45.213-21.53-67.736-31.301-5.631-2.484-11.262-4.803-16.893-7.287h-0.497c-89.1 33.785-159.486 77.342-214.967 133.485-41.403 41.9-66.908 85.291-77.673 132.822-4.803 20.867-7.287 41.403-7.453 60.946-0.662 64.755-0.497 130.504-0.497 194.265v67.902c99.368 6.625 193.934 43.060 297.608 114.605 0.828 0.662 1.987 1.325 3.147 2.153 0.994-0.662 2.153-1.491 3.147-2.153 76.679-53.493 149.715-87.278 223.082-103.509 19.874-4.306 39.913-6.625 59.29-8.943 5.134-0.662 10.102-1.159 15.071-1.822v-138.287z" />
<glyph unicode="&#xe92b;" glyph-name="free" horiz-adv-x="960" d="M479.544 832c-217.367 0-394.211-176.844-394.211-394.211s176.844-394.211 394.211-394.211c217.367 0 394.211 176.844 394.211 394.211s-176.84 394.211-394.211 394.211v0zM479.585 85.038c-194.484 0-352.707 158.227-352.707 352.711s158.223 352.707 352.707 352.707c194.484 0 352.707-158.223 352.707-352.707s-158.223-352.711-352.707-352.711v0zM250.88 440.939c0 49.721 8.512 86.674 25.536 110.859s41.479 36.277 73.365 36.277c34.048 0 59.043-11.957 74.987-35.872s23.915-61.002 23.915-111.264c0-49.991-8.579-87.147-25.739-111.467s-41.682-36.48-73.568-36.48c-33.778 0-58.638 12.768-74.581 38.304s-23.915 62.083-23.915 109.643v0zM303.573 440.939c0-32.967 3.58-58.435 10.741-76.405s18.983-26.955 35.467-26.955c15.943 0 27.63 8.242 35.061 24.725s11.147 42.695 11.147 78.635c0 32.697-3.513 57.963-10.539 75.797s-19.051 26.752-36.075 26.752c-16.213 0-27.9-8.377-35.061-25.131s-10.741-42.56-10.741-77.419v0zM643.574 338.758h-55.136v-44.614h-48.402v44.614h-30.725v37.88h30.725v33.671h-30.725v42.088h30.725v136.787h79.547c21.325 0 38.791-2.806 52.4-8.418s24.341-12.837 32.198-21.676c7.857-8.839 13.188-18.589 15.994-29.251s4.209-21.184 4.209-31.566c0-10.101-1.613-20.413-4.84-30.935s-8.909-20.062-17.046-28.62c-8.137-8.558-19.010-15.573-32.619-21.044s-30.795-8.207-51.558-8.207h-29.883v-32.829h55.136v-37.88zM588.438 452.397h30.725c5.892 0 12.135 0.631 18.729 1.894s12.767 3.578 18.519 6.945c5.752 3.367 10.452 8.067 14.1 14.1s5.471 13.819 5.471 23.359c0 9.821-1.613 17.817-4.84 23.99s-7.506 11.013-12.837 14.521c-5.331 3.507-11.294 5.892-17.888 7.155s-13.398 1.894-20.413 1.894h-31.566v-93.857z" />
<glyph unicode="&#xe92c;" glyph-name="people" horiz-adv-x="960" d="M329.903 247.797l-35.225 17.597c-0.33 0.165-0.535 0.497-0.535 0.866v21.3c18.24 13.53 30.085 35.203 30.085 59.593v30.060c0 32.617-26.557 59.152-59.201 59.152h-30.087c-32.644 0-59.201-26.535-59.201-59.152v-30.060c0-24.39 11.845-46.063 30.085-59.593v-21.3c0-0.369-0.205-0.701-0.535-0.866l-35.225-17.597c-15.057-7.523-24.412-22.644-24.412-39.465v-133.103c0-11.719 3.44-23.064 9.944-32.812l14.926-22.371c3.412-5.115 5.215-11.066 5.215-17.212v-31.438c0-7.766 6.301-14.063 14.074-14.063s14.074 6.296 14.074 14.063v31.438c0 11.717-3.438 23.063-9.942 32.812l-14.928 22.373c-3.412 5.113-5.215 11.064-5.215 17.211v133.103c0 6.097 3.393 11.582 8.852 14.31l24.438 12.208 22.305-22.286c5.677-5.672 13.132-8.509 20.588-8.509s14.913 2.837 20.589 8.509l22.305 22.286 24.438-12.208c5.459-2.728 8.852-8.211 8.852-14.31v-133.103c0-6.146-1.803-12.097-5.215-17.211l-14.928-22.373c-6.504-9.75-9.942-21.096-9.942-32.812v-31.438c0-7.766 6.301-14.063 14.074-14.063s14.074 6.296 14.074 14.063v31.438c0 6.146 1.803 12.097 5.215 17.212l14.928 22.371c6.504 9.748 9.944 21.094 9.944 32.812v133.103c-0.002 16.819-9.356 31.943-24.414 39.465zM250.668 232.45c-0.375-0.375-0.989-0.377-1.368 0l-19.238 19.223c2.513 4.339 3.911 9.332 3.911 14.588v6.709h32.023v-6.709c0-5.254 1.398-10.249 3.911-14.588l-19.238-19.223zM249.985 301.096c-25.418 0-46.095 20.663-46.095 46.057v30.060h-0.002c0 17.109 13.93 31.028 31.053 31.028h30.087c17.123 0 31.053-13.918 31.053-31.028v-30.060c0-25.397-20.68-46.057-46.095-46.057zM570.585 247.797l-35.225 17.597c-0.33 0.165-0.535 0.497-0.535 0.866v21.3c18.24 13.53 30.085 35.203 30.085 59.593v30.060c0 32.617-26.557 59.152-59.201 59.152h-30.085c-32.644 0-59.201-26.535-59.201-59.152v-30.060c0-24.39 11.845-46.063 30.085-59.593v-21.3c0-0.369-0.205-0.701-0.535-0.866l-35.225-17.597c-15.057-7.523-24.41-22.644-24.41-39.465v-133.103c0-11.719 3.44-23.064 9.944-32.812l14.926-22.373c3.412-5.115 5.215-11.066 5.215-17.212v-31.436c0-7.766 6.301-14.063 14.074-14.063s14.074 6.296 14.074 14.063v31.438c0 11.717-3.438 23.063-9.944 32.812l-14.926 22.373c-3.412 5.113-5.215 11.064-5.215 17.211v133.103c0 6.099 3.391 11.582 8.85 14.31l24.438 12.208 22.305-22.286c5.677-5.67 13.132-8.507 20.588-8.507s14.913 2.837 20.589 8.507l22.303 22.286 24.438-12.208c5.459-2.728 8.85-8.211 8.85-14.31v-133.103c0-6.146-1.803-12.097-5.215-17.211l-14.926-22.373c-6.506-9.75-9.944-21.096-9.944-32.812v-31.438c0-7.766 6.301-14.063 14.074-14.063s14.074 6.296 14.074 14.063v31.438c0 6.146 1.803 12.097 5.215 17.212l14.926 22.371c6.504 9.748 9.944 21.094 9.944 32.812v133.103c0.002 16.821-9.353 31.943-24.41 39.465zM491.352 232.452c-0.377-0.379-0.993-0.379-1.37-0.002l-19.236 19.223c2.513 4.339 3.911 9.332 3.911 14.588v6.709h32.021v-6.709c0-5.254 1.398-10.249 3.911-14.588l-19.236-19.221zM490.667 301.096c-25.416 0-46.095 20.663-46.095 46.057v30.060c0 17.109 13.93 31.028 31.053 31.028h30.085c17.123 0 31.053-13.918 31.053-31.028v-30.060c0-25.397-20.68-46.057-46.095-46.057zM811.267 247.797l-35.225 17.597c-0.33 0.165-0.535 0.497-0.535 0.866v21.3c18.24 13.53 30.085 35.203 30.085 59.593v30.060c0 32.617-26.557 59.152-59.201 59.152h-30.087c-32.644 0-59.201-26.535-59.201-59.152v-30.060c0-24.39 11.845-46.063 30.085-59.593v-21.3c0-0.369-0.205-0.701-0.535-0.866l-35.225-17.597c-15.057-7.523-24.412-22.644-24.412-39.465v-133.103c0-11.719 3.44-23.064 9.944-32.812l14.926-22.371c3.412-5.115 5.215-11.066 5.215-17.212v-31.438c0-7.766 6.301-14.063 14.074-14.063s14.074 6.296 14.074 14.063v31.438c0 11.717-3.438 23.063-9.942 32.812l-14.928 22.373c-3.412 5.113-5.215 11.064-5.215 17.211v133.103c0 6.097 3.393 11.582 8.852 14.31l24.438 12.208 22.305-22.286c5.677-5.672 13.132-8.509 20.589-8.509 7.456 0 14.911 2.837 20.588 8.509l22.305 22.286 24.438-12.208c5.459-2.728 8.852-8.211 8.852-14.31v-133.103c0-6.146-1.803-12.097-5.215-17.211l-14.928-22.373c-6.504-9.75-9.942-21.096-9.942-32.812v-31.438c0-7.766 6.301-14.063 14.074-14.063s14.074 6.296 14.074 14.063v31.438c0 6.146 1.803 12.097 5.215 17.212l14.928 22.371c6.504 9.748 9.944 21.094 9.944 32.812v133.103c-0.002 16.819-9.356 31.943-24.414 39.465zM732.031 232.45c-0.377-0.377-0.993-0.375-1.368 0l-19.238 19.223c2.513 4.339 3.911 9.332 3.911 14.588v6.709h32.023v-6.709c0-5.254 1.398-10.249 3.911-14.588l-19.238-19.223zM731.348 301.096c-25.418 0-46.095 20.663-46.095 46.057v30.060h-0.002c0 17.109 13.93 31.028 31.053 31.028h30.087c17.123 0 31.053-13.918 31.053-31.028v-30.060c0-25.397-20.68-46.057-46.095-46.057zM777.174 798.756c-76.529 76.466-178.279 118.577-286.507 118.577s-209.978-42.111-286.507-118.577c-76.529-76.466-118.674-178.133-118.674-286.271 0-53.938 10.447-106.32 31.049-155.691 2.991-7.168 11.235-10.554 18.407-7.568 7.174 2.989 10.565 11.222 7.574 18.392-17.369 41.623-26.949 85.564-28.597 130.806h107.126c0.126-5.586 0.313-11.164 0.587-16.693 0.388-7.757 7.018-13.729 14.755-13.346 7.763 0.386 13.744 6.988 13.357 14.743-0.251 5.066-0.432 10.177-0.554 15.296h227.401v-15.997c0-7.766 6.301-14.063 14.074-14.063s14.074 6.296 14.074 14.063v15.997h227.401c-0.122-5.126-0.302-10.241-0.554-15.311-0.387-7.757 5.592-14.359 13.357-14.745 0.238-0.011 0.475-0.017 0.711-0.017 7.45 0 13.671 5.844 14.044 13.363 0.276 5.531 0.462 11.117 0.589 16.71h107.126c-1.648-45.249-11.233-89.197-28.608-130.828-2.991-7.168 0.398-15.401 7.574-18.392 1.77-0.739 3.605-1.087 5.412-1.087 5.51 0 10.741 3.255 12.995 8.653 20.608 49.378 31.059 101.769 31.059 155.715 0 108.139-42.145 209.805-118.674 286.271zM357.085 864.76c-21.426-18.296-41.284-41.143-59.023-68.252-12.087-18.469-22.841-38.409-32.218-59.537h-77.773c42.658 57.255 101.187 102.024 169.015 127.789zM221.047 526.548h-107.124c2.458 66.594 22.284 128.831 55.101 182.299h85.413c-20.43-55.382-31.931-117.54-33.389-182.299zM476.593 526.548h-227.392c1.576 66.596 14.282 128.831 35.315 182.299h192.077v-182.299zM476.593 736.97h-179.867c41.458 86.826 106.302 144.964 179.867 151.583v-151.583zM793.263 736.971h-77.773c-9.377 21.126-20.132 41.068-32.218 59.537-17.746 27.12-37.613 49.967-59.049 68.263 67.839-25.764 126.378-70.537 169.041-127.8zM504.741 888.552c73.564-6.619 138.408-64.759 179.867-151.583h-179.867v151.583zM504.741 526.548v182.299h192.075c21.032-53.467 33.738-115.703 35.315-182.299h-227.39zM760.288 526.548c-1.458 64.759-12.959 126.917-33.389 182.299h85.413c32.815-53.467 52.641-115.704 55.099-182.299h-107.122z" />
<glyph unicode="&#xe92d;" glyph-name="guest" d="M511.814 960c141.335 0 269.301-57.448 362.194-149.93 92.52-92.879 149.992-220.792 149.992-362.070s-57.472-269.191-149.992-362.070c-92.917-92.482-220.858-149.93-362.194-149.93s-269.277 57.448-361.797 149.93c-92.917 92.879-150.017 220.767-150.017 362.070 0 141.277 57.075 269.191 149.992 362.070 92.545 92.482 220.486 149.93 361.822 149.93zM834.643 770.696c-82.673 82.639-196.848 133.418-322.829 133.418s-240.156-50.754-322.829-133.418c-82.276-82.639-133.472-196.767-133.472-322.696s51.171-240.057 133.472-322.721c82.673-82.639 196.848-133.418 322.829-133.418s240.156 50.779 322.829 133.418c82.673 82.639 133.869 196.767 133.869 322.721 0 125.93-51.171 240.057-133.869 322.696zM738.275 290.275c-34.854 34.852-76.339 60.654-121.601 76.272 48.478 33.389 80.326 89.268 80.326 152.452 0 102.009-82.991 185-185 185s-185-82.991-185-185c0-63.185 31.849-119.064 80.328-152.452-45.263-15.619-86.748-41.42-121.601-76.272-60.44-60.441-93.726-140.8-93.726-226.275h50c0 148.879 121.121 270 270 270s270-121.121 270-270h50c0 85.475-33.286 165.834-93.725 226.275zM512 384c-74.439 0-135 60.56-135 135s60.561 135 135 135c74.439 0 135-60.56 135-135s-60.561-135-135-135z" />
<glyph unicode="&#xe92e;" glyph-name="calendar" d="M256 768h2.664c26.512 0 48.001 21.487 48.001 48.001v95.998c0 26.514-21.489 48.001-48.001 48.001h-2.664c-26.512 0-48.001-21.487-48.001-48.001v-95.998c0-26.514 21.489-48.001 48.001-48.001v0zM752.001 768h2.664c26.514 0 48.001 21.487 48.001 48.001v95.998c-0.002 26.514-21.489 48.001-48.003 48.001h-2.664c-26.512 0-48.001-21.487-48.001-48.001v-95.998c0.002-26.514 21.491-48.001 48.003-48.001v0zM896 832h-45.337v-15.999c0-52.937-43.063-96-96-96h-2.664c-52.937 0-96 43.063-96 96v15.999h-301.335v-15.999c0-52.937-43.065-96-96-96h-2.664c-52.937 0-96 43.063-96 96v15.999h-32c-70.688 0-128-57.312-128-128v-640c0-70.688 57.312-128 128-128h768c70.688 0 128 57.312 128 128v640c0 70.688-57.312 128-128 128v0zM960 64c0-35.311-28.689-64-64-64h-768c-35.279 0-64 28.689-64 64v512h896v-512zM334.672 416c0-43.45-35.223-78.672-78.672-78.672s-78.672 35.223-78.672 78.672c0 43.45 35.223 78.672 78.672 78.672s78.672-35.223 78.672-78.672zM590.672 416c0-43.45-35.223-78.672-78.672-78.672s-78.672 35.223-78.672 78.672c0 43.45 35.223 78.672 78.672 78.672s78.672-35.223 78.672-78.672zM846.672 416c0-43.45-35.223-78.672-78.672-78.672s-78.672 35.223-78.672 78.672c0 43.45 35.223 78.672 78.672 78.672s78.672-35.223 78.672-78.672zM334.672 160c0-43.45-35.223-78.672-78.672-78.672s-78.672 35.223-78.672 78.672c0 43.45 35.223 78.672 78.672 78.672s78.672-35.223 78.672-78.672zM590.672 160c0-43.45-35.223-78.672-78.672-78.672s-78.672 35.223-78.672 78.672c0 43.45 35.223 78.672 78.672 78.672s78.672-35.223 78.672-78.672zM846.672 160c0-43.45-35.223-78.672-78.672-78.672s-78.672 35.223-78.672 78.672c0 43.45 35.223 78.672 78.672 78.672s78.672-35.223 78.672-78.672z" />
<glyph unicode="&#xe92f;" glyph-name="minus" d="M128 512h768v-128h-768v128z" />
<glyph unicode="&#xe930;" glyph-name="plus" d="M448 512v320h128v-320h320v-128h-320v-320h-128v320h-320v128h320z" />
<glyph unicode="&#xe931;" glyph-name="select" d="M901.893 608.046c-10.621 10.621-27.88 10.621-38.5 0l-338.537-339.201-339.201 339.201c-10.621 10.621-27.88 10.621-38.5 0s-10.621-27.88 0-38.5l357.787-357.787c5.31-5.31 11.948-7.966 19.25-7.966 6.638 0 13.94 2.655 19.25 7.966l357.787 357.787c11.285 10.621 11.285 27.88 0.664 38.5z" />
<glyph unicode="&#xe932;" glyph-name="cross-min" d="M546.307 568.203l180.907 180.907c25.055 25.055 65.454 25.28 90.622 0.112 24.994-24.994 24.629-65.88-0.112-90.622l-180.907-180.907 180.907-180.907c25.055-25.055 25.28-65.454 0.112-90.622-24.994-24.994-65.88-24.629-90.622 0.112l-180.907 180.907-180.907-180.907c-25.055-25.055-65.454-25.28-90.622-0.112-24.994 24.994-24.629 65.88 0.112 90.622l180.907 180.907-180.907 180.907c-25.055 25.055-25.28 65.454-0.112 90.622 24.994 24.994 65.88 24.629 90.622-0.112l180.907-180.907z" />
<glyph unicode="&#xe933;" glyph-name="cam" d="M881.863 694.831h-25.982l-155.893-155.893v129.91c0 28.71-23.28 51.964-51.964 51.964h-493.66c-28.684 0-51.964-23.28-51.964-51.964v-441.696c0-28.684 23.28-51.964 51.964-51.964h493.66c28.684 0 51.964 23.28 51.964 51.964v129.91l155.893-155.893h25.982c28.684 0 51.964 23.254 51.964 51.964v389.731c0 28.684-23.28 51.964-51.964 51.964zM622.042 253.134h-441.696v389.733h441.696v-389.733zM855.881 311.385l-136.588 136.615 136.588 136.588v-273.203z" />
<glyph unicode="&#xe934;" glyph-name="playground" d="M512-64c-282.77 0-512 229.23-512 512s229.23 512 512 512c282.77 0 512-229.23 512-512s-229.23-512-512-512zM512-27.429c262.572 0 475.429 212.857 475.429 475.429s-212.857 475.429-475.429 475.429c-262.572 0-475.429-212.857-475.429-475.429s212.857-475.429 475.429-475.429zM787.429 667.429c-9.467 0-17.143-7.598-17.143-16.97v-4.516h-92.009v4.516c0 9.372-7.675 16.97-17.143 16.97s-17.143-7.598-17.143-16.97v-67.115h-95.779c-27.259 0-51.973-14.888-64.496-38.856l-81.274-155.54c-20.274-38.8-60.283-62.903-104.411-62.903h-61.458c-9.467 0-17.143-7.598-17.143-16.97v-63.533c0-9.372 7.675-16.97 17.143-16.97h65.259c38.478 0 76.191 10.467 109.059 30.269 32.87 19.803 59.589 48.152 77.265 81.983l75.791 145.047h80.045v-240.33c0-9.372 7.675-16.97 17.143-16.97s17.143 7.598 17.143 16.97v40.836h92.009v-40.836c0-9.372 7.675-16.97 17.143-16.97s17.143 7.598 17.143 16.97v404.918c0 9.372-7.675 16.97-17.143 16.97zM770.286 320.316h-92.009v32.37h92.009v-32.37zM770.286 386.626h-92.009v32.37h92.009v-32.37zM770.286 452.937h-92.009v32.934h92.009v-32.934zM770.286 583.344h-92.009v28.66h92.009v-28.66z" />
<glyph unicode="&#xe935;" glyph-name="beach" d="M512-64c-282.77 0-512 229.23-512 512s229.23 512 512 512c282.77 0 512-229.23 512-512s-229.23-512-512-512zM512-27.429c262.572 0 475.429 212.857 475.429 475.429s-212.857 475.429-475.429 475.429c-262.572 0-475.429-212.857-475.429-475.429s212.857-475.429 475.429-475.429zM652.57 628.623v20.37c0 10.182-8.299 18.436-18.536 18.436s-18.536-8.255-18.536-18.436v-20.36c-85.331-7.355-152.046-65.622-152.102-136.192 0-4.974 3.911-9.081 8.873-9.347 0.185-0.011 0.373-0.016 0.561-0.016 2.605 0 5.106 1.040 6.849 2.838 10.841 11.112 25.369 17.233 40.905 17.233 15.469-0.009 29.946-6.066 40.759-17.050 1.76-1.791 4.21-2.817 6.728-2.817 2.247 0 4.425 0.803 6.136 2.264 11.881 10.168 26.124 17.145 41.291 20.432v-177.469h-378.1c-9.907-0.001-17.967-8.016-17.967-17.867s8.060-17.866 17.967-17.866h157.097c9.225 0 16.731-7.463 16.731-16.637 0-9.178-7.506-16.644-16.731-16.644h-66.010c-9.91 0-17.971-8.015-17.971-17.866 0-9.854 8.061-17.87 17.971-17.87h113.244c6.928-2.035 12.001-8.409 12.001-15.95 0-9.178-7.506-16.644-16.731-16.644h-151.068c-9.91 0-17.971-8.015-17.971-17.866 0-9.854 8.061-17.87 17.971-17.87h335.586c9.906 0 17.963 8.016 17.963 17.87 0 9.851-8.058 17.866-17.963 17.866h-23.618c-9.224 0-16.727 7.467-16.727 16.644 0 7.539 5.073 13.913 11.998 15.95h99.393c9.906 0 17.963 8.016 17.963 17.87 0 9.851-8.058 17.866-17.963 17.866h-109.431c-9.224 0-16.727 7.467-16.727 16.644 0 9.174 7.504 16.637 16.727 16.637h172.992c9.91 0 17.971 8.015 17.971 17.866s-8.061 17.866-17.971 17.866h-103.554v177.45c15.132-3.296 29.338-10.263 41.188-20.407 1.705-1.464 3.885-2.27 6.139-2.27 2.549 0 4.937 0.997 6.732 2.815 10.808 10.987 25.284 17.044 40.758 17.052 15.534 0 30.062-6.12 40.893-17.216 1.872-1.933 4.624-2.981 7.389-2.84 4.992 0.269 8.904 4.376 8.904 9.355-0.056 70.537-66.722 128.786-152.002 136.177zM238.523 575.192h28.77c1.199-3.876 2.761-7.592 4.632-11.122l-20.362-20.362c-7.457-7.457-7.457-19.546 0-27.003 3.728-3.728 8.615-5.593 13.501-5.593s9.774 1.864 13.501 5.593l20.362 20.362c3.529-1.871 7.246-3.433 11.122-4.632v-28.77c0-10.545 8.549-19.094 19.094-19.094s19.094 8.549 19.094 19.094v28.77c3.876 1.199 7.592 2.761 11.12 4.632l20.362-20.362c3.728-3.728 8.615-5.593 13.501-5.593s9.774 1.864 13.501 5.593c7.457 7.457 7.457 19.546 0 27.003l-20.359 20.362c1.871 3.529 3.433 7.246 4.632 11.122h28.77c10.545 0 19.094 8.549 19.094 19.094s-8.549 19.094-19.094 19.094h-28.77c-1.199 3.876-2.761 7.592-4.632 11.12l20.362 20.362c7.457 7.457 7.457 19.546 0 27.003s-19.546 7.457-27.003 0l-20.362-20.362c-3.529 1.871-7.244 3.433-11.12 4.632v28.771c0 10.545-8.549 19.094-19.094 19.094s-19.094-8.549-19.094-19.094v-28.77c-3.876-1.199-7.592-2.761-11.122-4.632l-20.361 20.361c-7.456 7.457-19.546 7.457-27.003 0s-7.457-19.546 0-27.003l20.362-20.362c-1.871-3.529-3.433-7.244-4.632-11.12h-28.771c-10.545 0-19.094-8.549-19.094-19.094s8.549-19.094 19.094-19.094z" />
<glyph unicode="&#xe936;" glyph-name="pool_out" d="M512-64c-282.77 0-512 229.23-512 512s229.23 512 512 512c282.77 0 512-229.23 512-512s-229.23-512-512-512zM512-27.429c262.572 0 475.429 212.857 475.429 475.429s-212.857 475.429-475.429 475.429c-262.572 0-475.429-212.857-475.429-475.429s212.857-475.429 475.429-475.429zM330.561 331.745c6.689 6.402 15.583 9.927 25.044 9.927s18.353-3.526 25.043-9.927c13.922-13.325 32.434-20.664 52.124-20.664s38.201 7.338 52.122 20.664c6.689 6.402 15.583 9.927 25.044 9.927s18.353-3.526 25.044-9.927c28.739-27.507 75.143-27.157 104.247 0 11.133 10.387 19.226 9.896 25.043 9.927 9.459 0.050 18.353-3.525 25.043-9.927 28.741-27.508 75.505-27.508 104.246 0 7.478 7.157 7.478 18.76 0 25.917s-19.602 7.157-27.080 0c-6.689-6.402-15.583-9.927-25.044-9.927s-18.353 3.526-25.043 9.927c-15.314 14.656-36.287 22.162-58.374 20.397 0 8.525 0 232.487 0 240.983 0 46.484-39.514 84.302-88.083 84.302s-88.083-37.817-88.083-84.302c0-10.121 8.573-18.326 19.149-18.326s19.149 8.205 19.149 18.326c0 26.274 22.334 47.649 49.786 47.649s49.786-21.375 49.786-47.649v-78.193h-173.614v78.193c0 46.484-39.514 84.302-88.083 84.302s-88.083-37.817-88.083-84.302c0-10.121 8.573-18.326 19.149-18.326s19.149 8.205 19.149 18.326c0 26.274 22.334 47.649 49.786 47.649s49.786-21.375 49.786-47.649c0-11.505 0-251.139 0-261.456-0.027 0.026-0.056 0.050-0.083 0.076-28.741 27.508-75.505 27.508-104.246 0-6.689-6.402-15.583-9.927-25.044-9.927s-18.355 3.526-25.044 9.927c-7.477 7.157-19.603 7.157-27.080 0-7.478-7.157-7.478-18.76 0-25.917 28.739-27.508 75.505-27.508 104.246 0zM587.102 347.735c-9.461 0-18.353 3.526-25.044 9.927-28.741 27.507-75.505 27.508-104.247 0-3.402-3.256-7.377-5.764-11.705-7.447 0 15.983 0 28.137 0 44.023 5.926 0 165.266 0 173.614 0 0-15.687 0-16.858 0-30.257-2.646-1.929-5.183-4.028-7.575-6.319-6.688-6.402-15.582-9.927-25.043-9.927zM619.721 504.197v-73.306h-173.614v73.306h173.614zM766.478 280.080c-6.689-6.402-15.583-9.927-25.044-9.927s-18.353 3.526-25.043 9.927c-28.807 27.57-75.436 27.574-104.246 0-6.689-6.402-15.583-9.927-25.044-9.927s-18.353 3.526-25.044 9.927c-28.741 27.508-75.505 27.508-104.247 0-6.689-6.402-15.582-9.927-25.043-9.927-9.459 0-18.353 3.525-25.043 9.927-28.741 27.508-75.505 27.508-104.246 0-6.689-6.402-15.583-9.927-25.044-9.927s-18.355 3.526-25.044 9.927c-7.477 7.157-19.603 7.157-27.080 0-7.478-7.157-7.478-18.76 0-25.917 28.741-27.508 75.505-27.508 104.246 0 6.689 6.402 15.583 9.927 25.044 9.927s18.353-3.526 25.043-9.927c13.922-13.325 32.434-20.664 52.124-20.664s38.201 7.338 52.122 20.664c6.689 6.402 15.583 9.927 25.044 9.927s18.353-3.526 25.044-9.927c28.739-27.507 75.504-27.508 104.247 0 6.689 6.402 15.583 9.927 25.043 9.927s18.353-3.525 25.043-9.927c28.741-27.508 75.505-27.508 104.246 0 7.478 7.157 7.478 18.76 0 25.917-7.476 7.157-19.6 7.157-27.079 0zM766.478 202.498c-6.689-6.402-15.583-9.927-25.044-9.927s-18.353 3.526-25.043 9.927c-13.922 13.325-32.434 20.664-52.124 20.664s-38.201-7.338-52.124-20.664c-6.689-6.402-15.583-9.927-25.044-9.927s-18.353 3.526-25.044 9.927c-28.741 27.508-75.505 27.509-104.247 0-6.689-6.402-15.582-9.927-25.043-9.927-9.459 0-18.353 3.525-25.043 9.927-28.741 27.508-75.505 27.508-104.246 0-6.689-6.402-15.583-9.927-25.044-9.927s-18.355 3.526-25.044 9.927c-7.477 7.157-19.603 7.157-27.080 0-7.478-7.157-7.478-18.76 0-25.917 28.741-27.508 75.505-27.508 104.246 0 6.689 6.402 15.583 9.927 25.044 9.927s18.353-3.526 25.043-9.927c13.922-13.325 32.434-20.664 52.124-20.664s38.201 7.338 52.122 20.664c6.689 6.402 15.583 9.927 25.044 9.927s18.353-3.526 25.044-9.927c28.739-27.507 75.504-27.508 104.247 0 6.689 6.402 15.583 9.927 25.043 9.927s18.353-3.525 25.043-9.927c28.741-27.508 75.505-27.508 104.246 0 7.478 7.157 7.478 18.76 0 25.917-7.474 7.157-19.599 7.157-27.077 0z" />
<glyph unicode="&#xe937;" glyph-name="spa" d="M512-64c-282.77 0-512 229.23-512 512s229.23 512 512 512c282.77 0 512-229.23 512-512s-229.23-512-512-512zM512-27.429c262.572 0 475.429 212.857 475.429 475.429s-212.857 475.429-475.429 475.429c-262.572 0-475.429-212.857-475.429-475.429s212.857-475.429 475.429-475.429zM511.693 598.884c59.799 17.639 104.949 43.349 96.799 70.93-8.136 27.591-113.539 44.639-173.357 26.993-59.837-17.647-51.405-63.306-43.27-90.887 8.134-27.599 59.994-24.7 119.828-7.036zM393.341 516.378c-8.59-34.547 86.082-46.37 171.108-67.556 85.045-21.195 157.547-24.095 166.155 10.454 8.59 34.537 15.81 91.64-69.235 112.826-85.026 21.187-259.421-21.186-268.029-55.724zM445.376 438.325c-17.514 0-32.043-2.398-44.269-6.456 17.795-10.918 27.95-33.431 29.513-54.116 24.297 17.286 57.991 13.431 73.908-14.010 16.039-27.852 0.948-59.379-25.86-77.868 13.282-5.894 23.366-16.865 28.301-29.33 3.443-0.043 6.87-0.122 10.365-0.122 98.152 0 249.672 18.709 249.672 63.971s-223.477 117.932-321.629 117.932zM375.861 302.739c30.621 17.313 41.671 57.674 35.47 82.734-4.708 19.017-15.863 35.478-35.47 35.478-19.605 0-31.552-15.644-31.552-35.232 0-6.861 3.708-14.134 8.522-22.355 10.487-17.99 21.993-36.945 23.030-60.626zM374.281 277.098c-19.255-10.866-30.78-30.823-35.136-50.445-2.566-11.516-2.67-22.916-0.351-32.289 4.69-19.026 15.882-35.488 35.487-35.488 19.569 0 31.552 15.644 31.552 35.241 0 6.852-3.708 14.108-8.503 22.319-10.506 17.999-22.012 36.894-23.049 60.662zM289.148 307.885c17.99-1.783 47.328 3.46 75.207-10.874 0.019 1.855-0.106 6.931-0.666 7.177-3.373 31.859-29.918 58.174-53.229 64.919-18.709 5.448-38.861 3.602-48.487-12.99-12.563-21.793 4.302-45.895 27.176-48.232zM449.154 272.479c-0.018-0.009-0.035-0.009-0.054-0.018-17.621-0.124-40.019-1.713-63.331 10.366-0.281-39.439 41.173-83.847 80.847-74.092 6.548 1.61 17.039 7.238 21.521 14.985 11.488 19.938 0.263 48.759-38.983 48.759zM363.582 284.195c-14.264 8.38-32.764 11.691-54.056 6.956-12.542-2.809-26.244-8.871-35.328-17.593-24.366-23.356-20.607-48.056-2.513-59.361 11.349-7.027 24.664-5.235 35.786 1.204 16.986 9.786 21.624 46.731 56.11 68.794zM436.839 287.797c13.314 2.372 29.408 9.153 39.123 18.492 17.145 16.494 24.226 37.929 8.221 54.73-9.644 10.103-26.104 12.324-41.546 3.436-16.952-9.804-21.609-46.766-56.060-68.812 13.054-7.705 30.954-11.271 50.262-7.846z" />
<glyph unicode="&#xe938;" glyph-name="restaurant" d="M512-64c-282.77 0-512 229.23-512 512s229.23 512 512 512c282.77 0 512-229.23 512-512s-229.23-512-512-512zM512-27.429c262.572 0 475.429 212.857 475.429 475.429s-212.857 475.429-475.429 475.429c-262.572 0-475.429-212.857-475.429-475.429s212.857-475.429 475.429-475.429zM522.518 670.56c-120.402 0-218.007-94.341-218.007-210.717s97.605-210.717 218.007-210.717c120.402 0 218.007 94.341 218.007 210.717s-97.605 210.717-218.007 210.717zM522.517 299.956c-91.211 0-165.417 71.725-165.417 159.886s74.206 159.886 165.417 159.886c91.211 0 165.417-71.725 165.417-159.886s-74.205-159.886-165.417-159.886zM522.517 576.871c-66.762 0-121.077-52.499-121.077-117.028s54.315-117.028 121.077-117.028c66.762 0 121.077 52.499 121.077 117.028s-54.314 117.028-121.077 117.028zM827.405 442.175v256.058c0 2.471-1.632 4.666-4.056 5.456-2.422 0.788-5.095-0.009-6.642-1.977-33.053-42.132-50.943-93.556-50.943-146.43v-93.674c0-10.743 9.010-19.454 20.127-19.454h8.391c-8.271-82.57-13.737-198.052-13.737-211.574 0-21.303 13.566-38.571 30.299-38.571s30.299 17.27 30.299 38.571c0 13.523-5.466 129.024-13.738 211.594zM270.822 492.933c16.768 9.817 27.976 27.618 27.976 47.952l-8.306 131.257c-0.318 5.003-4.608 8.904-9.795 8.904-5.61 0-10.079-4.542-9.8-9.954l5.401-105.269c0-5.918-4.964-10.713-11.084-10.713s-11.084 4.798-11.084 10.713l-2.699 105.226c-0.143 5.561-4.847 9.996-10.603 9.996s-10.459-4.437-10.603-9.996l-2.699-105.226c0-5.918-4.964-10.713-11.084-10.713-6.121 0-11.084 4.798-11.084 10.713l5.401 105.269c0.278 5.415-4.194 9.954-9.8 9.954-5.187 0-9.477-3.901-9.793-8.904l-8.31-131.258c0-20.333 11.206-38.133 27.976-47.952 10.913-6.389 16.997-18.334 15.591-30.592-9.467-82.464-15.895-217.094-15.895-231.76 0-21.303 13.566-38.571 30.299-38.571s30.299 17.27 30.299 38.571c0 14.665-6.43 149.295-15.895 231.76-1.408 12.252 4.683 24.207 15.591 30.593z" />
<glyph unicode="&#xe939;" glyph-name="gum" d="M512-64c-282.77 0-512 229.23-512 512s229.23 512 512 512c282.77 0 512-229.23 512-512s-229.23-512-512-512zM512-27.429c262.572 0 475.429 212.857 475.429 475.429s-212.857 475.429-475.429 475.429c-262.572 0-475.429-212.857-475.429-475.429s212.857-475.429 475.429-475.429zM215.245 402.629h40.554v-67.929c0-21.723 16.918-39.354 37.771-39.354 6.537 0 12.602 1.894 17.954 4.948v-19.060c0-21.745 16.92-39.364 37.783-39.364 20.847 0 37.771 17.631 37.771 39.364v121.395h240.319v-121.395c0-21.745 16.91-39.364 37.776-39.364 20.856 0 37.767 17.631 37.767 39.364v19.085c5.36-3.066 11.436-4.948 17.966-4.948 20.868 0 37.779 17.609 37.779 39.354v67.917h50.084c17.892 0 32.373 15.088 32.373 33.732 0 18.639-14.479 33.734-32.373 33.734h-50.084v67.904c0 21.733-16.91 39.359-37.779 39.359-6.53 0-12.606-1.892-17.966-4.948v19.080c0 21.738-16.91 39.354-37.767 39.354-20.866 0-37.776-17.626-37.776-39.354v-121.395h-240.319v121.38c0 21.74-16.915 39.354-37.771 39.354-20.849 0-37.783-17.629-37.783-39.354v-19.067c-5.362 3.056-11.415 4.935-17.954 4.935-20.856 0-37.771-17.616-37.771-39.359v-67.907h-40.554c-17.892 0-32.388-15.105-32.388-33.734 0-18.627 14.496-33.727 32.388-33.727z" />
<glyph unicode="&#xe93a;" glyph-name="transfer" d="M512-64c-282.77 0-512 229.23-512 512s229.23 512 512 512c282.77 0 512-229.23 512-512s-229.23-512-512-512zM512-27.429c262.572 0 475.429 212.857 475.429 475.429s-212.857 475.429-475.429 475.429c-262.572 0-475.429-212.857-475.429-475.429s212.857-475.429 475.429-475.429zM798.778 594.286c-28.198 0-310.097 0-359.45 0-49.34 0-143.428-113.195-143.428-113.195s-53.904-8.423-89.131-28.122c-35.241-19.724-21.115-98.597-21.115-98.597h54.622c0 32.693 28.401 59.186 63.398 59.186 35.065 0 63.452-26.493 63.452-59.186h261.678c0 32.693 28.401 59.186 63.398 59.186 35.105 0 63.479-26.493 63.479-59.186h85.461v144.587c-0.068 0.013-14.167 95.327-42.365 95.327zM235.129 424.658h-29.214v17.262h29.2l0.014-17.262zM507.209 501.889h-155.942c0 0 55.556 65.689 81.953 65.689 26.424 0 74.003 0 74.003 0v-65.689h-0.014zM661.391 501.889h-122.422v65.689h122.422v-65.689zM694.925 501.889l-0.027 65.689h95.131l15.873-65.689h-110.977zM823.373 390.197h-9.873v108.775h9.873v-108.775zM302.198 407.067c-31.178 0-56.504-23.551-56.504-52.658 0-29.119 25.313-52.695 56.504-52.695 31.232 0 56.491 23.576 56.491 52.695-0.014 29.082-25.3 52.658-56.491 52.658zM302.198 331.301c-13.666 0-24.771 10.367-24.771 23.109 0 12.754 11.119 23.096 24.771 23.096 13.706 0 24.785-10.342 24.785-23.096s-11.119-23.109-24.785-23.109zM690.442 407.067c-31.191 0-56.491-23.551-56.491-52.658 0-29.119 25.3-52.695 56.491-52.695 31.218 0 56.491 23.576 56.491 52.695-0.014 29.082-25.313 52.658-56.491 52.658zM690.455 331.301c-13.679 0-24.771 10.367-24.771 23.109 0 12.754 11.092 23.096 24.771 23.096 13.652 0 24.771-10.342 24.771-23.096-0.014-12.741-11.119-23.109-24.771-23.109zM371.108 349.51h261.15v-17.237h-261.15v17.237z" />
<glyph unicode="&#xe93b;" glyph-name="share" d="M795.904 310.658c-56.943 0-107.17-28.18-139.985-71.334l-304.368 161.685c3.985 15.437 6.849 31.388 6.849 48.175 0 18.274-3.401 35.479-8.148 52.221l303.025 160.94c32.635-45.107 84.161-74.589 142.671-74.589 99.114 0 179.29 83.283 179.29 186.145 0.002 102.769-80.176 186.099-179.288 186.099-98.89 0-179.155-83.33-179.155-186.097 0-16.834 2.866-32.83 6.894-48.315l-304.325-161.685c-32.859 43.199-83.177 71.472-140.209 71.472-99.024 0-179.155-83.376-179.155-186.19s80.133-186.145 179.155-186.145c58.599 0 110.082 29.575 142.849 74.727l302.891-160.94c-4.746-16.694-8.191-34.039-8.191-52.361 0-102.814 80.266-186.145 179.155-186.145 99.114 0 179.29 83.33 179.29 186.145 0.046 102.907-80.131 186.192-179.244 186.192z" />
</font>
</defs>
</svg>
